[#196] Персона / Persona (Ингмар Бергман / Ingmar Bergman) [1966 г., Драма, DVDRip]

Ответить на тему
 

рыжий ®

Стаж: 7 лет 7 месяцев

Сообщений: 169

Симпатии: 130

Персона / Persona«Previously unseen Director's Cut» -IMDb: Top 250: #196
Год выпуска: 1966
Страна: Швеция
Жанр: драма
Продолжительность: 01:19:02
Перевод: Профессиональный (двухголосый) + оригинальная шведская дорожка
Русские субтитры: есть (внешние)
Режиссер: Ингмар Бергман / Ingmar Bergman-В ролях: Лив Ульман, Биби Андерсон, Гуннар Бьернстранд, Маргарита Кроок-Описание: Психологическая драма, в которой раскрывается одна из важнейших проблем современного мира, когда, несмотря на казалось бы нормальное течение профессиональной и личной жизни, человек вдруг ощущает одиночество и бессмысленность своего существования. Будучи знаменитой актрисой, госпожа Фоглер внезапно замолкает прямо во время спектакля и с тех пор перестает разговаривать со всеми.
Пребывание в больнице показывает, что психически она здорова. Медсестра Альма должна вывести ее из этого состояния, и они отправляются вдвоем к морю, где им предстоит нелегкие дни общения.-Доп. информация: Две национальные кинопремии Швеции в 1967 году: в номинациях «Лучший фильм» и «Лучшая актриса» (Биби Андерссон).

Знаете ли вы, что...

  • В античном театре термин «Персона» обозначает маску, через чье отверстие для рта декламирует свою роль актер.
  • Сам термин «Persona» позаимствован Ингмаром Бергманом из философской теории К.Г.Юнга о связи между «Persona» и «Anima» в жизни, где «Persona» представляет собой маску, изображающую определенную роль в обществе, скрывающую при этом истинное «я». «Anima», или же «Animus» - это коллективный образ женщины в индивидуальном бессознательном мужчины, и наоборот; - это архетип, противоположный совершенному образу «Persona».
 -Качество: DVDRip
Формат: AVI
Видео кодек: XviD
Аудио кодек: AC3
Видео: 704x528 (1.33:1), 25 fps, XviD build 46 ~1973 kbps avg, 0.21 bit/pixel
Аудио: Audio 1: 48 kHz, AC3 Dolby Digital, 2/0 (L,R) ch, ~192.00 kbps avg Audio 2: 48 kHz, AC3 Dolby Digital, 2/0 (L,R) ch, ~192.00 kbps avg

MediaInfo

General
Complete name : D:\IMDb250\persona\Persona.DVDRip.XviD.avi
Format : AVI
Format/Info : Audio Video Interleave
File size : 1.31 GiB
Duration : 1h 19mn
Overall bit rate : 2 373 Kbps
Writing application : VirtualDubMod 1.5.4.1 (build 2178/release)
Writing library : VirtualDubMod build 2178/release
Video
ID : 0
Format : MPEG-4 Visual
Format profile : [email protected]
Format settings, BVOP : No
Format settings, QPel : No
Format settings, GMC : No warppoints
Format settings, Matrix : Default (H.263)
Codec ID : XVID
Codec ID/Hint : XviD
Duration : 1h 19mn
Bit rate : 1 975 Kbps
Width : 704 pixels
Height : 528 pixels
Display aspect ratio : 4:3
Frame rate : 25.000 fps
Color space : YUV
Chroma subsampling : 4:2:0
Bit depth : 8 bits
Scan type : Progressive
Compression mode : Lossy
Bits/(Pixel*Frame) : 0.213
Stream size : 1.09 GiB (83%)
Writing library : XviD 1.1.2 (UTC 2006-11-01)
Audio #1
ID : 1
Format : AC-3
Format/Info : Audio Coding 3
Mode extension : CM (complete main)
Codec ID : 2000
Duration : 1h 19mn
Bit rate mode : Constant
Bit rate : 192 Kbps
Channel(s) : 2 channels
Channel positions : Front: L R
Sampling rate : 48.0 KHz
Bit depth : 16 bits
Compression mode : Lossy
Stream size : 109 MiB (8%)
Alignment : Split accross interleaves
Interleave, duration : 40 ms (1.00 video frame)
Interleave, preload duration : 500 ms
Audio #2
ID : 2
Format : AC-3
Format/Info : Audio Coding 3
Mode extension : CM (complete main)
Codec ID : 2000
Duration : 1h 19mn
Bit rate mode : Constant
Bit rate : 192 Kbps
Channel(s) : 2 channels
Channel positions : Front: L R
Sampling rate : 48.0 KHz
Bit depth : 16 bits
Compression mode : Lossy
Stream size : 109 MiB (8%)
Alignment : Split accross interleaves
Interleave, duration : 40 ms (1.00 video frame)
Interleave, preload duration : 500 ms

Скриншоты




Создавать темы 08-Июл-2012 09:27

[Профиль]  [ЛС] 

IQBOT

Стаж: 6 лет 10 месяцев

Сообщений: 449

Симпатии: 81

о да! :) Бергманн!

Создавать темы 08-Июл-2012 10:51

[Профиль]  [ЛС] 

Tyrael7774

Стаж: 5 лет 3 месяца

Сообщений: 76

Симпатии: 1

Интересный Фильм ag

Создавать темы 20-Авг-2012 22:58

[Профиль]  [ЛС] 

239tuit

Стаж: 5 лет 3 месяца

Сообщений: 75

да хороший фильм

Создавать темы 25-Авг-2012 21:35

[Профиль]  [ЛС] 

239tuit

Стаж: 5 лет 3 месяца

Сообщений: 75

надо скачать

Создавать темы 25-Авг-2012 21:36

[Профиль]  [ЛС] 

schweppes

Стаж: 4 года 11 месяцев

Сообщений: 72

скорости, ребята.

Создавать темы 07-Янв-2013 14:18

[Профиль]  [ЛС] 

schweppes

Стаж: 4 года 11 месяцев

Сообщений: 72

тс раздавать будет?
третью неделю качаю. :tm:

Создавать темы 28-Янв-2013 19:27

[Профиль]  [ЛС] 

IQBOT

Стаж: 6 лет 10 месяцев

Сообщений: 449

Симпатии: 81

На раздаче.

Создавать темы 28-Янв-2013 19:46

[Профиль]  [ЛС] 
Показать сообщения:    
Ответить на тему

Текущее время: 18-Дек 10:19

Часовой пояс: UTC + 5



Вы не можете начинать темы
Вы не можете отвечать на сообщения
Вы не можете редактировать свои сообщения
Вы не можете удалять свои сообщения
Вы не можете голосовать в опросах
Вы не можете прикреплять файлы к сообщениям
Вы не можете скачивать файлы