Wrestlemania XXIV (Эфир канала Qtv) [2009 г., Реслинг, SATRip]

Страницы :  1, 2  След.

Ответить на тему
 

Спартанец ®

Стаж: 5 лет 6 месяцев

Сообщений: 361

- - Год выпуска: 2009
Вид спорта: Реслинг
Участники: Звезды WWE
Продолжительность: 03.39.25
Комментарий: Профессиональный (одноголосый)
Язык комментариев: Украинский
Описание: главное ППВ 2008 года от WWE
Доп. информация: Wrestlemania XXIV (Эфир канала Qtv). Этот выпуск, самое лучшее что я смог найти для нас :)
Качество: SATRip
Формат: AVI
Видео кодек: XviD
Аудио кодек: AC3
Видео: Xvid, 704x400, 25fps, 1 300 Kbps
Аудио: Dolby, AC3, 48000Hz, stereo, 128kbps, 128 Kbps

Кард

John "Bradshaw" Layfield vs. Finlay (w/ Hornswoggle) - Belfast Brawl
Chris Jericho vs. CM Punk vs. Carlito vs. Mr. Kennedy vs. John Morrison vs. Shelton Benjamin vs. M.V.P. - Money in the Bank ladder match
Batista vs. Umaga - Battle for Brand Supremacy
Kane vs. Chavo Guerrero - ECW Championship
Shawn Michaels vs. Ric Flair - Career Threatening match
Maria and Ashley vs. Beth Phoenix and Melina (w/ Santino Marella) - Playboy BunnyMania Lumberjack match
Randy Orton vs. John Cena vs. Triple H - Threat match for the WWE Championship
Floyd Mayweather vs. The Big Show - No Disqualification match
Edge vs. The Undertaker - World Heavyweight Championship

Скриншот



МедиаИнфо

General
Format : AVI
Format/Info : Audio Video Interleave
File size : 2.20 GiB
Duration : 3h 39mn
Overall bit rate : 1 437 Kbps
Video
ID : 0
Format : MPEG-4 Visual
Format profile : Advanced [email protected]
Format settings, BVOP : 2
Format settings, QPel : No
Format settings, GMC : No warppoints
Format settings, Matrix : Default (H.263)
Codec ID : XVID
Codec ID/Hint : XviD
Duration : 3h 39mn
Bit rate : 1 300 Kbps
Width : 704 pixels
Height : 400 pixels
Display aspect ratio : 16:9
Frame rate : 25.000 fps
Color space : YUV
Chroma subsampling : 4:2:0
Bit depth : 8 bits
Scan type : Progressive
Compression mode : Lossy
Bits/(Pixel*Frame) : 0.185
Stream size : 1.99 GiB (90%)
Writing library : XviD 1.2.1 (UTC 2008-12-04)
Audio
ID : 1
Format : AC-3
Format/Info : Audio Coding 3
Mode extension : CM (complete main)
Codec ID : 2000
Duration : 3h 39mn
Source duration : 3h 39mn
Bit rate mode : Constant
Bit rate : 128 Kbps
Channel(s) : 2 channels
Channel positions : Front: L R
Sampling rate : 48.0 KHz
Bit depth : 16 bits
Compression mode : Lossy
Stream size : 201 MiB (9%)
Alignment : Aligned on interleaves
Interleave, duration : 40 ms (1.00 video frame)

Создавать темы 09-Июл-2012 15:46

[Профиль]  [ЛС] 

LiX

Стаж: 6 лет 2 месяца

Сообщений: 254

Симпатии: 6

Украинский???!!!)))

Создавать темы 09-Июл-2012 16:27

[Профиль]  [ЛС] 

Спартанец ®

Стаж: 5 лет 6 месяцев

Сообщений: 361

угу ))) На русском уже сидов не было. А тут, хоть с украинским, зато скачалось )))

Создавать темы 09-Июл-2012 16:33

[Профиль]  [ЛС] 

slap_nuts

Стаж: 7 лет 2 месяца

Сообщений: 85

Floyd Mayweather профессиональный боксер...
Batista vs. Umaga - жаль Umaga сейчас нет в живых((

Создавать темы 09-Июл-2012 20:23

[Профиль]  [ЛС] 

NodirAgenT

Стаж: 6 лет 4 месяца

Сообщений: 204

WWE.Orca.Uz Все Новости из мира WWE А также Скоро будут и футболки (работаю над Этим) На днях появится Страничка=)

_________________
Подпись отключена за нарушение правил форума

Создавать темы 09-Июл-2012 21:57

[Профиль]  [ЛС] 

Emil_Safa

Стаж: 5 лет 2 месяца

Сообщений: 102

NodirAgenT, футболки которые можно заказать?)

Создавать темы 09-Июл-2012 22:39

[Профиль]  [ЛС] 

LiX

Стаж: 6 лет 2 месяца

Сообщений: 254

Симпатии: 6

Emil_Safa, надеемся на это))

Создавать темы 09-Июл-2012 22:56

[Профиль]  [ЛС] 

Kroys

Стаж: 5 лет 10 месяцев

Сообщений: 187

Симпатии: 1

Emil_Safa, надеемся на это))
В-вау... будет классно)) сообщайте почаще сюда)) блин качество видоса жалко плохое ..:(

Создавать темы 09-Июл-2012 23:05

[Профиль]  [ЛС] 

Vovo4ka

Стаж: 6 лет 1 месяц

Сообщений: 160

Симпатии: 11

Спасибо. А у тебя случайно Wrestlemania 19 нету? Очень хотел посмотреть.

Создавать темы 09-Июл-2012 23:41

[Профиль]  [ЛС] 

Спартанец ®

Стаж: 5 лет 6 месяцев

Сообщений: 361

Не, такой к сожалению нет

Создавать темы 10-Июл-2012 06:28

[Профиль]  [ЛС] 

NodirAgenT

Стаж: 6 лет 4 месяца

Сообщений: 204

В Следующем Месяце буду заливать Титантроны Ток на Майтуб А еси Получится Наверно и сюды хз посморим на тариф лайф перейду

_________________
Подпись отключена за нарушение правил форума

Создавать темы 10-Июл-2012 09:36

[Профиль]  [ЛС] 

NodirAgenT

Стаж: 6 лет 4 месяца

Сообщений: 204

Raw 998 Выпуск ( Описание Кому Интерсно Можете Прочесть на сайте будет Находится В разделе Новости На первой Странице (Пс еси Там нету Работаю над Этим Перевожу Цук Сложновато Сократ Тупит

_________________
Подпись отключена за нарушение правил форума

Создавать темы 10-Июл-2012 09:47

[Профиль]  [ЛС] 

sanpaulo_s

Стаж: 5 лет 8 месяцев

Сообщений: 11

http://thepiratebay.org/torrent/6405183 скачай пожалуйста это рестлмании и на трекер залей плиз

Создавать темы 10-Июл-2012 10:48

[Профиль]  [ЛС] 

LiX

Стаж: 6 лет 2 месяца

Сообщений: 254

Симпатии: 6

NodirAgenT, используй это http://translate.google.ru/
Оно очень полезная

Создавать темы 10-Июл-2012 10:54

[Профиль]  [ЛС] 

RokC

Стаж: 5 лет 7 месяцев

Сообщений: 56

спасибо огромное

Создавать темы 10-Июл-2012 11:10

[Профиль]  [ЛС] 
Показать сообщения:    
Ответить на тему

Текущее время: 19-Авг 08:52

Часовой пояс: UTC + 5



Вы не можете начинать темы
Вы не можете отвечать на сообщения
Вы не можете редактировать свои сообщения
Вы не можете удалять свои сообщения
Вы не можете голосовать в опросах
Вы не можете прикреплять файлы к сообщениям
Вы не можете скачивать файлы