PPV WWE - 2011.12.18 - TLC 2011 [2011 г., Реслинг, HDTV]

Страницы :  1, 2  След.

Ответить на тему
 

Спартанец ®

Стаж: 5 лет 6 месяцев

Сообщений: 361

- Год выпуска: 2011
Вид спорта: Реслинг
Участники: Звезды WWE
Продолжительность: 02.49.05
Комментарий: Профессиональный (многоголосый, закадровый)
Язык комментариев: Русский
Описание: PPV от WWE
Качество: HDTV
Формат: Mр4
Видео кодек: x264/AVC
Аудио кодек: MPEG Audio Layer 3
Видео: MPEG4, Video, (H264), 704x400, 29.97fps, 1 452 Kbps
Аудио: MPEG, Audio, Layer 3, 48000Hz, stereo, 1536kbps, 128 Kbps

Кард

Скриншот



МедиаИнфо

General
Format : MPEG-4
Format profile : Base Media
Codec ID : isom
File size : 1.87 GiB
Duration : 2h 49mn
Overall bit rate : 1 583 Kbps
Encoded date : UTC 2011-12-18 15:38:55
Tagged date : UTC 2011-12-18 15:38:55
Writing application : Yamb 2.1.0.0 [http://yamb.unite-video.com]
Video
ID : 1
Format : AVC
Format/Info : Advanced Video Codec
Format profile : [email protected]
Format settings, CABAC : Yes
Format settings, ReFrames : 4 frames
Codec ID : avc1
Codec ID/Info : Advanced Video Coding
Duration : 2h 49mn
Bit rate : 1 452 Kbps
Maximum bit rate : 2 490 Kbps
Width : 704 pixels
Height : 400 pixels
Display aspect ratio : 16:9
Frame rate mode : Constant
Frame rate : 29.970 fps
Color space : YUV
Chroma subsampling : 4:2:0
Bit depth : 8 bits
Scan type : Progressive
Bits/(Pixel*Frame) : 0.172
Stream size : 1.71 GiB (92%)
Writing library : x264 core 120 r2120 0c7dab9
Encoding settings : cabac=1 / ref=5 / deblock=1:0:0 / analyse=0x3:0x113 / me=umh / subme=9 / psy=1 / psy_rd=1.00:0.00 / mixed_ref=1 / me_range=16 / chroma_me=1 / trellis=1 / 8x8dct=1 / cqm=0 / deadzone=21,11 / fast_pskip=1 / chroma_qp_offset=-2 / threads=12 / sliced_threads=0 / nr=0 / decimate=1 / interlaced=0 / bluray_compat=0 / constrained_intra=0 / bframes=3 / b_pyramid=1 / b_adapt=2 / b_bias=0 / direct=3 / weightb=1 / open_gop=0 / weightp=2 / keyint=300 / keyint_min=30 / scenecut=40 / intra_refresh=0 / rc_lookahead=40 / rc=crf / mbtree=1 / crf=19.0 / qcomp=0.60 / qpmin=0 / qpmax=69 / qpstep=4 / vbv_maxrate=1500 / vbv_bufsize=1450 / crf_max=0.0 / nal_hrd=none / ip_ratio=1.40 / aq=1:1.00
Encoded date : UTC 2011-09-08 11:43:25
Tagged date : UTC 2011-12-18 15:43:27
Audio
ID : 2
Format : MPEG Audio
Format version : Version 1
Format profile : Layer 3
Mode : Joint stereo
Mode extension : MS Stereo
Codec ID : 6B
Duration : 2h 49mn
Bit rate mode : Constant
Bit rate : 128 Kbps
Maximum bit rate : 132 Kbps
Channel(s) : 2 channels
Sampling rate : 48.0 KHz
Compression mode : Lossy
Stream size : 155 MiB (8%)
Encoded date : UTC 2011-12-18 15:42:36
Tagged date : UTC 2011-12-18 15:43:27

Создавать темы 09-Июл-2012 15:55

[Профиль]  [ЛС] 

LiX

Стаж: 6 лет 2 месяца

Сообщений: 254

Симпатии: 6

Класс только хотел тебя об этом спросить)) СПС

Создавать темы 09-Июл-2012 16:25

[Профиль]  [ЛС] 

Спартанец ®

Стаж: 5 лет 6 месяцев

Сообщений: 361

я про все заказы помню )) Потихоньку выкладываю ) Не за что LiX,

Создавать темы 09-Июл-2012 16:34

[Профиль]  [ЛС] 

Frozzen

Стаж: 5 лет 2 месяца

Сообщений: 88

давно я это хотел посмотреть) СПС тебе))))

Создавать темы 09-Июл-2012 18:09

[Профиль]  [ЛС] 

Akmal&Getto

Стаж: 5 лет 2 месяца

Сообщений: 79

Спартанец, хотел спросить WWE на каком СПУТНИКЕ показывает или вы скачивайте на сайте ПЛЗ подробнее. Спс

Создавать темы 09-Июл-2012 20:43

[Профиль]  [ЛС] 

McFLY

Стаж: 5 лет 5 месяцев

Сообщений: 658

Симпатии: 22

Ну как я понимаю Спартанец льёт с рутрекера или с 545TV.COM, хотя чем чёрт не шутит :)

Создавать темы 09-Июл-2012 21:34

[Профиль]  [ЛС] 

NodirAgenT

Стаж: 6 лет 4 месяца

Сообщений: 204

Вот ссылочка Все Узнаешь Щас Ток Настрочил еси не понятно отпиши там же
http://wwe.orca.uz/Home/category/new/265

_________________
Подпись отключена за нарушение правил форума

Создавать темы 09-Июл-2012 21:51

[Профиль]  [ЛС] 

LiX

Стаж: 6 лет 2 месяца

Сообщений: 254

Симпатии: 6

NodirAgenT, сайт хорошо выглядит но после коммента Аватарка не появляется((

Создавать темы 09-Июл-2012 22:10

[Профиль]  [ЛС] 

NodirAgenT

Стаж: 6 лет 4 месяца

Сообщений: 204

Сек настрою

_________________
Подпись отключена за нарушение правил форума

Создавать темы 09-Июл-2012 22:13

[Профиль]  [ЛС] 

NodirAgenT

Стаж: 6 лет 4 месяца

Сообщений: 204

Все настроил

_________________
Подпись отключена за нарушение правил форума

Создавать темы 09-Июл-2012 22:17

[Профиль]  [ЛС] 

NodirAgenT

Стаж: 6 лет 4 месяца

Сообщений: 204

Споки ночи Кому че а я ща на роботу свалю ( Седня намудили Плов делать Отосплюсь и в 12 ночи на роботу бб)

_________________
Подпись отключена за нарушение правил форума

Создавать темы 09-Июл-2012 22:17

[Профиль]  [ЛС] 

McFLY

Стаж: 5 лет 5 месяцев

Сообщений: 658

Симпатии: 22

Удачи!

Создавать темы 09-Июл-2012 22:24

[Профиль]  [ЛС] 

LiX

Стаж: 6 лет 2 месяца

Сообщений: 254

Симпатии: 6

Спартанец, надеюсь будете всю ночь раздавать?

Создавать темы 09-Июл-2012 23:39

[Профиль]  [ЛС] 

Спартанец ®

Стаж: 5 лет 6 месяцев

Сообщений: 361

Флай прав ) и с рутрекера и с 545тв ) LiX, каждую ночь раздаю )

Создавать темы 10-Июл-2012 06:30

[Профиль]  [ЛС] 

NodirAgenT

Стаж: 6 лет 4 месяца

Сообщений: 204

Епта Рей Возращается Читайте На сайте )

_________________
Подпись отключена за нарушение правил форума

Создавать темы 10-Июл-2012 20:53

[Профиль]  [ЛС] 
Показать сообщения:    
Ответить на тему

Текущее время: 17-Авг 16:47

Часовой пояс: UTC + 5



Вы не можете начинать темы
Вы не можете отвечать на сообщения
Вы не можете редактировать свои сообщения
Вы не можете удалять свои сообщения
Вы не можете голосовать в опросах
Вы не можете прикреплять файлы к сообщениям
Вы не можете скачивать файлы