Марта, Марси Мэй, Марлен / Martha Marcy May Marlene (Шон Дуркин) [2011 г., триллер, драма, HDRip]

Ответить на тему
 

alx777 ®

Стаж: 5 лет 8 месяцев

Сообщений: 87

Симпатии: 8

Марта, Марси Мэй, Марлен / Martha Marcy May Marlene
Год выпуска: 2011
Страна: США
Жанр: триллер, драма
Продолжительность: 01:41:54
Перевод: Профессиональный (многоголосый, закадровый)(Лицензия)
Режиссер: Шон Дуркин
В ролях: Элизабет Олсен, Кристофер Эбботт, Брэйди Корбет, Хью Дэнси, Мария Дицциа, Джулия Гарнер, Джон Хоукс, Луиса Краузе, Сара Полсон, Адам Дэвид Томпсон
Описание: Сбежав из секты и от ее харизматичного лидера, Марта пытается восстановиться и вернуться к нормальной жизни. Она ищет поддержки у своей старшей сестры Люси и ее мужа, с которыми давно не общалась, но не находит в себе сил признаться им в истинной причине своего долгого отсутствия. Она убеждена, что члены секты ее преследуют. Мучительные воспоминания, не дающие девушке покоя, перерастают в паранойю, и граница между реальностью и иллюзией постепенно размывается…
 
Качество: HDRip
Формат: AVI
Видео кодек: XviD
Аудио кодек: AC3
Видео: XviD,720x304,1 975 Kbps,23.976 fps
Аудио1: ac3 , 48000 Hz, 5.1, 448 kb/s(Русский)
Аудио2:ac3 , 48000 Hz, 5.1, 448 kb/s(Английский)

Скриншоты



MediaInfo

Format : AVI
Format/Info : Audio Video Interleave
Format profile : OpenDML
File size : 2.06 GiB
Duration : 1h 41mn
Overall bit rate : 2 889 Kbps
Writing application : VirtualDubMod 1.5.10.2 (build 2540/release)
Writing library : VirtualDubMod build 2540/release
Video
ID : 0
Format : MPEG-4 Visual
Format profile : Advanced [email protected]
Format settings, BVOP : 2
Format settings, QPel : No
Format settings, GMC : No warppoints
Format settings, Matrix : Custom
Codec ID : XVID
Codec ID/Hint : XviD
Duration : 1h 41mn
Bit rate : 1 975 Kbps
Width : 720 pixels
Height : 304 pixels
Display aspect ratio : 2.35:1
Frame rate : 23.976 fps
Color space : YUV
Chroma subsampling : 4:2:0
Bit depth : 8 bits
Scan type : Progressive
Compression mode : Lossy
Bits/(Pixel*Frame) : 0.376
Stream size : 1.41 GiB (68%)
Writing library : XviD 1.2.1 (UTC 2008-12-04)
Audio #1
ID : 1
Format : AC-3
Format/Info : Audio Coding 3
Mode extension : CM (complete main)
Codec ID : 2000
Duration : 1h 41mn
Bit rate mode : Constant
Bit rate : 448 Kbps
Channel(s) : 6 channels
Channel positions : Front: L C R, Side: L R, LFE
Sampling rate : 48.0 KHz
Bit depth : 16 bits
Compression mode : Lossy
Stream size : 327 MiB (16%)
Alignment : Split accross interleaves
Interleave, duration : 42 ms (1.00 video frame)
Interleave, preload duration : 500 ms
Audio #2
ID : 2
Format : AC-3
Format/Info : Audio Coding 3
Mode extension : CM (complete main)
Codec ID : 2000
Duration : 1h 41mn
Bit rate mode : Constant
Bit rate : 448 Kbps
Channel(s) : 6 channels
Channel positions : Front: L C R, Side: L R, LFE
Sampling rate : 48.0 KHz
Bit depth : 16 bits
Compression mode : Lossy
Stream size : 327 MiB (16%)
Alignment : Split accross interleaves
Interleave, duration : 42 ms (1.00 video frame)
Interleave, preload duration : 500 ms


Последний раз редактировалось: alx777 (2012-07-10 20:38), всего редактировалось 2 раз(а)

Создавать темы 10-Июл-2012 20:25

[Профиль]  [ЛС] 

ibragimof

Стаж: 6 лет 6 месяцев

Сообщений: 253

Симпатии: 48

люблю такие фильмы, посмотрим

Создавать темы 10-Июл-2012 20:31

[Профиль]  [ЛС] 

NepsteR

Стаж: 5 лет 7 месяцев

Сообщений: 113

Симпатии: 1

alx777 постер и скриншоты залей на нашему Галерию

Создавать темы 10-Июл-2012 20:43

[Профиль]  [ЛС] 
Показать сообщения:    
Ответить на тему

Текущее время: 23-Окт 16:50

Часовой пояс: UTC + 5



Вы не можете начинать темы
Вы не можете отвечать на сообщения
Вы не можете редактировать свои сообщения
Вы не можете удалять свои сообщения
Вы не можете голосовать в опросах
Вы не можете прикреплять файлы к сообщениям
Вы не можете скачивать файлы