[#6] 12 разгневанных мужчин / 12 Angry Men (Сидни Люмет) [1957 г., Драма, BDRip]

Ответить на тему
 

qweqwe ®

Стаж: 6 лет 9 месяцев

Сообщений: 52

Симпатии: 10

12 разгневанных мужчин / 12 Angry Men
IMDb: Top 250: #6
Год выпуска: 1957
Страна: США
Жанр: Драма
Продолжительность: 01:36:22
Режиссер: Сидни Люмет
В ролях: Генри Фонда, Мартин Болсам, Ли Дж. Кобб, Джон Фидлер, Э. Г. Маршалл, Джек Клагмен, Эд Биннс, Джек Уорден, Джозеф Суини, Эд Бегли, Джордж Восковек, Роберт Уэббер, Руди Бонд, Джеймс Келли, Билл Нельсон, Джон Сэвока
Описание: Юношу обвиняют в убийстве собственного отца, ему грозит электрический стул. Двенадцать присяжных собираются чтобы вынести вердикт: виновен или нет.
С начала заседания почти все склонились к тому, что виновен, и лишь только один из двенадцати позволил себе усомниться. Счет голосов присяжных по принципу «виновен — невиновен» был 11:1. К концу собрания мнения судей кардинально изменились…
Награды:
Оскар, 1958 год
Номинации: Лучший фильм, Лучший режиссер (Сидни Люмет), Лучший адаптированный сценарий
Золотой глобус, 1958 год
Номинации: Лучшая мужская роль (драма) (Генри Фонда), Лучший фильм (драма), Лучший режиссер (Сидни Люмет), Лучшая мужская роль второго плана (Ли Дж. Кобб)
Британская академия, 1958 год
Победитель: Лучший иностранный актер (Генри Фонда)
Номинации: Лучший фильм
Берлинский кинофестиваль, 1957 год
Победитель: Золотой Медведь, Приз Международной Католической организации в области кино (OCIC)
Качество: BDRip
Формат: AVI
Видео кодек: XviD
Аудио кодек: AC3
Видео: 720x432 (1.67:1), 23.976 fps, XviD, ~1769 kbps avg, 0.24 bit/pixel
Аудио 1: 48 kHz, AC3 Dolby Digital, 2/0 (L,R) ch, ~192 kbps многоголосый
Aудио 2: 48 kHz, AC3 Dolby Digital, 1/0 (C) ch, ~192 kbps оригинал

MediaInfo

General
Complete name : D:\Фильмы\IMDB\006_12_разгневанных_мужчин\12_Angry_Men.avi
Format : AVI
Format/Info : Audio Video Interleave
File size : 1.46 GiB
Duration : 1h 36mn
Overall bit rate : 2 168 Kbps
Writing application : VirtualDubMod 1.5.10.3 | www.virtualdub-fr.org || (build 2550/release)
Writing library : VirtualDubMod build 2550/release
Video
ID : 0
Format : MPEG-4 Visual
Format profile : Advanced [email protected]
Format settings, BVOP : 2
Format settings, QPel : No
Format settings, GMC : No warppoints
Format settings, Matrix : Custom
Codec ID : XVID
Codec ID/Hint : XviD
Duration : 1h 36mn
Bit rate : 1 770 Kbps
Width : 720 pixels
Height : 432 pixels
Display aspect ratio : 1.667
Frame rate : 23.976 fps
Color space : YUV
Chroma subsampling : 4:2:0
Bit depth : 8 bits
Scan type : Progressive
Compression mode : Lossy
Bits/(Pixel*Frame) : 0.237
Stream size : 1.19 GiB (82%)
Writing library : XviD 64
Audio #1
ID : 1
Format : AC-3
Format/Info : Audio Coding 3
Mode extension : CM (complete main)
Format settings, Endianness : Big
Codec ID : 2000
Duration : 1h 36mn
Bit rate mode : Constant
Bit rate : 192 Kbps
Channel(s) : 2 channels
Channel positions : Front: L R
Sampling rate : 48.0 KHz
Bit depth : 16 bits
Compression mode : Lossy
Stream size : 132 MiB (9%)
Alignment : Split accross interleaves
Interleave, duration : 42 ms (1.00 video frame)
Interleave, preload duration : 500 ms
Audio #2
ID : 2
Format : AC-3
Format/Info : Audio Coding 3
Mode extension : CM (complete main)
Format settings, Endianness : Big
Codec ID : 2000
Duration : 1h 36mn
Bit rate mode : Constant
Bit rate : 192 Kbps
Channel(s) : 1 channel
Channel positions : Front: C
Sampling rate : 48.0 KHz
Bit depth : 16 bits
Compression mode : Lossy
Stream size : 132 MiB (9%)
Alignment : Split accross interleaves
Interleave, duration : 42 ms (1.00 video frame)
Interleave, preload duration : 500 ms

Скриншоты



Создавать темы 12-Июл-2012 22:43

[Профиль]  [ЛС] 

IQBOT

Стаж: 6 лет 10 месяцев

Сообщений: 449

Симпатии: 81

Отличный фильм! Психологически очень интересный.
P.S.: с оригинальной аудио дорожкой вообще прекрасно :)

Создавать темы 12-Июл-2012 23:06

[Профиль]  [ЛС] 

brr

Стаж: 5 лет 7 месяцев

Сообщений: 38

теперь я понял чем был навеян сюжет к фильму 12 Михалкова.

Создавать темы 12-Июл-2012 23:22

[Профиль]  [ЛС] 

blake

Стаж: 5 лет 8 месяцев

Сообщений: 38

Симпатии: 2

Все верно, Пихалков - плагиатор!)

Создавать темы 15-Июл-2012 00:36

[Профиль]  [ЛС] 

StivenGerrard

Стаж: 6 лет 10 месяцев

Сообщений: 17

Реально отличный филм, автору огромное спасибо

Создавать темы 01-Сен-2012 14:25

[Профиль]  [ЛС] 

lp-apakalipsis

Стаж: 5 лет 7 месяцев

Сообщений: 14

Симпатии: 3

Отличный фильм! Кому понравился не пропустите ремейк "12" Никиты Михалкова.

Создавать темы 09-Июл-2013 18:20

[Профиль]  [ЛС] 
Показать сообщения:    
Ответить на тему

Текущее время: 23-Ноя 10:47

Часовой пояс: UTC + 5



Вы не можете начинать темы
Вы не можете отвечать на сообщения
Вы не можете редактировать свои сообщения
Вы не можете удалять свои сообщения
Вы не можете голосовать в опросах
Вы не можете прикреплять файлы к сообщениям
Вы не можете скачивать файлы