[#3] Крестный отец 2 / The Godfather: Part II (Френсис Форд Коппола) [1974 г., драма, криминал]

Страницы :  1, 2  След.

Ответить на тему
 

qweqwe ®

Стаж: 6 лет 10 месяцев

Сообщений: 52

Симпатии: 10

Крестный отец 2 / The Godfather: Part II
IMDB TOP 250: #3
Год выпуска: 1974
Страна: США
Жанр: драма, криминал
Продолжительность: 03:22:06
Режиссер: Френсис Форд Коппола
Сценарий: Френсис Форд Коппола, Марио Пьюзо
Продюсер: Френсис Форд Коппола, Грэй Фредериксон, Фред Роос
В ролях: Аль Пачино, Роберт Дюваль, Дайан Китон, Роберт Де Ниро, Джон Казале, Талия Шайр, Ли Страсберг, Майкл В. Гаццо, Г.Д. Спрэдлин, Ричард Брайт
Описание: В центре драмы представители нового поколения гангстерского клана — дона Корлеоне и его сына, для которых не существует моральных преград на пути достижения поставленых целей. Они превращают мафию, построенную по патриархальным, еще сицилийским законам, в весьма прагматичную, жесткую корпорацию, плавно интегрирующуюся в большой бизнес Америки.

MediaInfo

Format : AVI
Format/Info : Audio Video Interleave
Format profile : OpenDML
File size : 2.90 GiB
Duration : 3h 22mn
Overall bit rate : 2 056 Kbps
Movie name : Крестный отец 2 / The Godfather Part II (1974) BDRip
Director : HELLRAiSER (BDRip 1080)
Writing application : VirtualDubMod 1.5.10.2 (build 2542/release)
Copyright : HELLRAiSER
Comment : 08.10.2008
Video
ID : 0
Format : MPEG-4 Visual
Format profile : Advanced [email protected]
Format settings, BVOP : 1
Format settings, QPel : No
Format settings, GMC : No warppoints
Format settings, Matrix : Default (MPEG)
Codec ID : XVID
Codec ID/Hint : XviD
Duration : 3h 22mn
Bit rate : 1 664 Kbps
Width : 720 pixels
Height : 384 pixels
Display aspect ratio : 16:9
Original display aspect ratio : 1.85:1
Frame rate : 23.976 fps
Color space : YUV
Chroma subsampling : 4:2:0
Bit depth : 8 bits
Scan type : Progressive
Compression mode : Lossy
Bits/(Pixel*Frame) : 0.251
Stream size : 2.35 GiB (81%)
Writing library : XviD 1.1.2 (UTC 2006-11-01)
Audio
ID : 1
Format : AC-3
Format/Info : Audio Coding 3
Mode extension : CM (complete main)
Format settings, Endianness : Big
Codec ID : 2000
Duration : 3h 20mn
Bit rate mode : Constant
Bit rate : 384 Kbps
Channel(s) : 6 channels
Channel positions : Front: L C R, Side: L R, LFE
Sampling rate : 48.0 KHz
Bit depth : 16 bits
Compression mode : Lossy
Stream size : 552 MiB (19%)
Alignment : Split accross interleaves
Interleave, duration : 42 ms (1.01 video frame)
Interleave, preload duration : 500 ms

Скриншоты



Создавать темы 12-Июл-2012 23:02

[Профиль]  [ЛС] 

Tursunbek

Стаж: 6 лет 8 месяцев

Сообщений: 15

мда уж...вы ребята такие умные...лучше бы ссылку показали чем у других качать и выкладывать за своё!мда...совести нет!другие качают с мира,трудятся и выкладывают сюда...вот вам ссылка с полными сидерами тыкни сюда

Создавать темы 30-Июл-2012 23:03

[Профиль]  [ЛС] 

Arnold

Стаж: 6 лет 8 месяцев

Сообщений: 149

Симпатии: 5

мда уж...вы ребята такие умные...лучше бы ссылку показали чем у других качать и выкладывать за своё!мда...совести нет!другие качают с мира,трудятся и выкладывают сюда...вот вам ссылка с полными сидерами тыкни сюда
а ты тыкни сюда! и читай ниже

Создавать темы 30-Июл-2012 23:47

[Профиль]  [ЛС] 

Espucho

Стаж: 5 лет 10 месяцев

Сообщений: 37

вооо спс

Создавать темы 31-Июл-2012 22:05

[Профиль]  [ЛС] 

Tursunbek

Стаж: 6 лет 8 месяцев

Сообщений: 15

я вообще имел ввиду то что НЕНАДО воровать чужие релизы,просто надо оповестить того кто уже зарелизил и сказать ему чтоб и тута зделал этот релиз!

Создавать темы 01-Авг-2012 13:02

[Профиль]  [ЛС] 

qweqwe ®

Стаж: 6 лет 10 месяцев

Сообщений: 52

Симпатии: 10

мда уж...вы ребята такие умные...лучше бы ссылку показали чем у других качать и выкладывать за своё!мда...совести нет!другие качают с мира,трудятся и выкладывают сюда...вот вам ссылка с полными сидерами тыкни сюда
Ты видать свечку держал когда я скачивал, раз так уверен в этом.

Создавать темы 08-Авг-2012 21:27

[Профиль]  [ЛС] 

qweqwe ®

Стаж: 6 лет 10 месяцев

Сообщений: 52

Симпатии: 10

я вообще имел ввиду то что НЕНАДО воровать чужие релизы,просто надо оповестить того кто уже зарелизил и сказать ему чтоб и тута зделал этот релиз!
А самому слабо оповестить всех релизеров из списка IMDB. Так то у нас у каждого дом советов.

Создавать темы 08-Авг-2012 21:33

[Профиль]  [ЛС] 

qweqwe ®

Стаж: 6 лет 10 месяцев

Сообщений: 52

Симпатии: 10

Модераторы
Как мне кажется вы должны принимать соответствуюшие меры в отношении лиц клеветающих и обвиняющих на беспочвенной основе.

Создавать темы 08-Авг-2012 21:43

[Профиль]  [ЛС] 

ppp111

Стаж: 7 лет 5 месяцев

Сообщений: 9

BEST MOVIE

Создавать темы 09-Авг-2012 18:24

[Профиль]  [ЛС] 

ppp111

Стаж: 7 лет 5 месяцев

Сообщений: 9

Друзья помогите закачать !!!

Создавать темы 10-Авг-2012 08:49

[Профиль]  [ЛС] 

Tyrael7774

Стаж: 5 лет 3 месяца

Сообщений: 76

Симпатии: 1

Фильм то что надо! спасибо!

Создавать темы 20-Авг-2012 19:53

[Профиль]  [ЛС] 

Muzaffar555

Стаж: 5 лет 3 месяца

Сообщений: 2

3-ю часть залейте люди    

Создавать темы 24-Окт-2012 15:55

[Профиль]  [ЛС] 

Юлдашев Бахром

Стаж: 4 года 9 месяцев

Сообщений: 17

Симпатии: 3

Спасибо за фильм!

Создавать темы 28-Мар-2013 20:10

[Профиль]  [ЛС] 

Panda1990

Стаж: 4 года 8 месяцев

Сообщений: 2

Симпатии: 1

Друзья помогите пожалуйста до конца скачать!!! Встаньте на раздачу!!! Заранее спасибо.

Создавать темы 14-Апр-2013 11:01

[Профиль]  [ЛС] 

Jose Torres

Стаж: 5 лет 3 месяца

Сообщений: 5

Когда часть3 будет

Создавать темы 27-Апр-2013 16:16

[Профиль]  [ЛС] 
Показать сообщения:    
Ответить на тему

Текущее время: 18-Дек 16:00

Часовой пояс: UTC + 5



Вы не можете начинать темы
Вы не можете отвечать на сообщения
Вы не можете редактировать свои сообщения
Вы не можете удалять свои сообщения
Вы не можете голосовать в опросах
Вы не можете прикреплять файлы к сообщениям
Вы не можете скачивать файлы