[#5]Хороший, плохой, злой / The Good, the Bad and the Ugly (Серджио Леоне) [1966 г., приключения, вестерн]

Ответить на тему
 

qweqwe ®

Стаж: 6 лет 7 месяцев

Сообщений: 52

Симпатии: 10

Хороший, плохой, злой / The Good, the Bad and the Ugly
IMDB TOP 250: #5
Год выпуска: 1966
Страна: Италия, Испания, Германия
Жанр: приключения, вестерн
Продолжительность: 02:51:21
Режиссер: Серджио Леоне
В ролях: Клинт Иствуд, Ли Ван Клиф, Илай Уоллак, Альдо Джеффре, Луиджи Пистилли, Бенито Стефанелли, Марио Брега
Описание: В разгар гражданской войны таинственный стрелок скитается по просторам Дикого Запада. У него нет ни дома, ни друзей, ни компаньонов, пока он не встречает двоих незнакомцев, таких же безжалостных и циничных.
По воле судьбы трое мужчин вынуждены объединить свои усилия в поисках украденного золота. Но совместная работа — не самое подходящее занятие для таких отъявленных бандитов, как они. Компаньоны вскоре понимают, что в их дерзком и опасном путешествии по разоренной войной стране самое важное — никому не доверять и держать пистолет наготове, если хочешь остаться в живых.

MediaInfo

Format : AVI
Format/Info : Audio Video Interleave
File size : 1.37 GiB
Duration : 2h 51mn
Overall bit rate mode : Variable
Overall bit rate : 1 147 Kbps
Writing application : VirtualDubMod 1.5.10.1 (build 2439/release)
Writing library : VirtualDubMod build 2439/release
Video
ID : 0
Format : MPEG-4 Visual
Format settings, BVOP : 1
Format settings, QPel : No
Format settings, GMC : No warppoints
Format settings, Matrix : Default (H.263)
Muxing mode : Packed bitstream
Codec ID : DX50
Codec ID/Hint : DivX 5
Duration : 2h 51mn
Bit rate : 1 013 Kbps
Width : 640 pixels
Height : 272 pixels
Display aspect ratio : 2.35:1
Frame rate : 25.000 fps
Color space : YUV
Chroma subsampling : 4:2:0
Bit depth : 8 bits
Scan type : Progressive
Compression mode : Lossy
Bits/(Pixel*Frame) : 0.233
Stream size : 1.21 GiB (88%)
Writing library : DivX 5.2.0 (UTC 2004-07-15)
Audio
ID : 1
Format : MPEG Audio
Format version : Version 1
Format profile : Layer 3
Mode : Joint stereo
Mode extension : MS Stereo
Codec ID : 55
Codec ID/Hint : MP3
Duration : 2h 51mn
Bit rate mode : Variable
Bit rate : 121 Kbps
Nominal bit rate : 128 Kbps
Channel(s) : 2 channels
Sampling rate : 48.0 KHz
Compression mode : Lossy
Stream size : 148 MiB (11%)
Alignment : Aligned on interleaves
Interleave, duration : 24 ms (0.60 video frame)
Interleave, preload duration : 152 ms
Writing library : LAME3.90.
Encoding settings : -m j -V 4 -q 2 -lowpass 17.6 --abr 128

Скриншоты



Создавать темы 12-Июл-2012 23:24

[Профиль]  [ЛС] 

Mercuriy

Стаж: 5 лет 10 месяцев

Сообщений: 418

Симпатии: 100

Эххх скорость моя скорость bc как нетерпится посмотреть на самого себя af ag (Шутка)

Создавать темы 13-Июл-2012 19:22

[Профиль]  [ЛС] 

Tyrael7774

Стаж: 5 лет 1 месяц

Сообщений: 76

Симпатии: 1

Фильм всех времён и народов!)) спасибо pc

Создавать темы 20-Авг-2012 22:40

[Профиль]  [ЛС] 

maestron

Стаж: 5 лет 8 месяцев

Сообщений: 97

Симпатии: 2

Классика жанра!

Создавать темы 24-Авг-2012 03:00

[Профиль]  [ЛС] 

239tuit

Стаж: 5 лет 1 месяц

Сообщений: 75

Классика жанра!
это точно

Создавать темы 25-Авг-2012 21:08

[Профиль]  [ЛС] 

hamilion

Стаж: 5 лет

Сообщений: 155

Симпатии: 14

рекомендую

Создавать темы 08-Окт-2012 00:52

[Профиль]  [ЛС] 

mansa_19

Стаж: 4 года 10 месяцев

Сообщений: 24

Симпатии: 4

Народ! раздайте пожалуйста.

Создавать темы 10-Янв-2013 22:15

[Профиль]  [ЛС] 

otabek-1985

Стаж: 4 года 4 месяца

Сообщений: 1

У меня этот фильм не качается

Создавать темы 10-Ноя-2013 13:12

[Профиль]  [ЛС] 

tanuki

Стаж: 3 года 11 месяцев

Сообщений: 60

Симпатии: 3

Пришел качать - качай а не болтай. :)

Создавать темы 19-Ноя-2013 08:55

[Профиль]  [ЛС] 

Kakcam

Стаж: 6 лет 9 месяцев

Сообщений: 137

Симпатии: 7

Классика вестерн! Ничего больше

Создавать темы 29-Мар-2014 13:31

[Профиль]  [ЛС] 
Показать сообщения:    
Ответить на тему

Текущее время: 24-Сен 19:06

Часовой пояс: UTC + 5



Вы не можете начинать темы
Вы не можете отвечать на сообщения
Вы не можете редактировать свои сообщения
Вы не можете удалять свои сообщения
Вы не можете голосовать в опросах
Вы не можете прикреплять файлы к сообщениям
Вы не можете скачивать файлы