WWE Monday Night Raw 2012/07/09 [2012 г., Реслинг, HDTV]

Страницы :  1, 2  След.

Ответить на тему
 

Спартанец ®

Стаж: 5 лет 7 месяцев

Сообщений: 361

WWE Monday Night Raw 2012/07/09
Год выпуска: 2012
Вид спорта: Реслинг
Участники: Звезды WWE
Комментарий: Профессиональный (многоголосый, закадровый)
Язык комментариев: Русский
Описание: Еженедельный выпуск WWE Monday Night Raw. Выпуск от 09-го июля 2012 года
Качество: HDTV
Формат: Mр4
Видео кодек: х263/AVC
Аудио кодек: AAC
Видео: MPEG4, Video, (H264), 704x400, 29.97fps, 1 419 Kbps
Аудио: AAC, 44100Hz, stereo, 1411kbps, 128 Kbps

Кард

Sheamus vs. Jack Swagger
Dolph Ziggler and Tensai vs. Christian and Tyson Kidd
Brodus Clay vs. Drew McIntyre
John Cena and Kane vs. Big Show and Chris Jericho
Sin Cara vs. Heath Slater - Money in the Bank Qualifying Match
Jerry Lawler vs. Michael Cole
CM Punk and AJ vs. Daniel Bryan and Eve Torres

Скриншот

МедиаИнфо

General
Format : MPEG-4
Format profile : Base Media
Codec ID : isom
File size : 1.02 GiB
Duration : 1h 34mn
Overall bit rate mode : Variable
Overall bit rate : 1 551 Kbps
Encoded date : UTC 2012-07-09 17:59:08
Tagged date : UTC 2012-07-09 17:59:08
Writing application : Yamb 2.1.0.0 [http://yamb.unite-video.com]
Video
ID : 1
Format : AVC
Format/Info : Advanced Video Codec
Format profile : [email protected]
Format settings, CABAC : Yes
Format settings, ReFrames : 4 frames
Codec ID : avc1
Codec ID/Info : Advanced Video Coding
Duration : 1h 34mn
Bit rate : 1 419 Kbps
Maximum bit rate : 2 585 Kbps
Width : 704 pixels
Height : 400 pixels
Display aspect ratio : 16:9
Frame rate mode : Constant
Frame rate : 29.970 fps
Color space : YUV
Chroma subsampling : 4:2:0
Bit depth : 8 bits
Scan type : Progressive
Bits/(Pixel*Frame) : 0.168
Stream size : 957 MiB (91%)
Writing library : x264 core 125 r2200 999b753
Encoding settings : cabac=1 / ref=5 / deblock=1:0:0 / analyse=0x3:0x113 / me=umh / subme=9 / psy=1 / psy_rd=1.00:0.00 / mixed_ref=1 / me_range=16 / chroma_me=1 / trellis=1 / 8x8dct=1 / cqm=0 / deadzone=21,11 / fast_pskip=1 / chroma_qp_offset=-2 / threads=12 / lookahead_threads=2 / sliced_threads=0 / nr=0 / decimate=1 / interlaced=0 / bluray_compat=0 / constrained_intra=0 / bframes=3 / b_pyramid=1 / b_adapt=2 / b_bias=0 / direct=3 / weightb=1 / open_gop=0 / weightp=2 / keyint=300 / keyint_min=30 / scenecut=40 / intra_refresh=0 / rc_lookahead=40 / rc=crf / mbtree=1 / crf=19.0 / qcomp=0.60 / qpmin=0 / qpmax=69 / qpstep=4 / vbv_maxrate=1500 / vbv_bufsize=1450 / crf_max=0.0 / nal_hrd=none / ip_ratio=1.40 / aq=1:1.00
Encoded date : UTC 2011-09-08 11:43:25
Tagged date : UTC 2012-07-09 18:00:34
Audio
ID : 2
Format : AAC
Format/Info : Advanced Audio Codec
Format profile : LC
Codec ID : 40
Duration : 1h 34mn
Bit rate mode : Variable
Bit rate : 128 Kbps
Maximum bit rate : 170 Kbps
Channel(s) : 2 channels
Channel positions : Front: L R
Sampling rate : 44.1 KHz
Compression mode : Lossy
Stream size : 86.4 MiB (8%)
Encoded date : UTC 2012-07-09 18:00:20
Tagged date : UTC 2012-07-09 18:00:34


Последний раз редактировалось: Спартанец (2012-07-14 22:37), всего редактировалось 1 раз

Создавать темы 13-Июл-2012 06:18

[Профиль]  [ЛС] 

[email protected]

Стаж: 5 лет 4 месяца

Сообщений: 7

Интересно

Создавать темы 13-Июл-2012 08:45

[Профиль]  [ЛС] 

NodirAgenT

Стаж: 6 лет 5 месяцев

Сообщений: 204

Как Там Было Джон морисон ФЕНУМЕНАЛЬНЫЙ СПОРТСМЭН Я Не Знаю Шо Ишо Он Замыслет
КАСИТЬ БЕРЕЗОЙ КЕЛЬМОЙ САЛЬТО С ДРОБЫНОЮ

_________________
Подпись отключена за нарушение правил форума

Создавать темы 13-Июл-2012 10:08

[Профиль]  [ЛС] 

NodirAgenT

Стаж: 6 лет 5 месяцев

Сообщений: 204

МИСТЕР СНУПИ СОБАХА

_________________
Подпись отключена за нарушение правил форума

Создавать темы 13-Июл-2012 10:17

[Профиль]  [ЛС] 

McFLY

Стаж: 5 лет 6 месяцев

Сообщений: 658

Симпатии: 22

точняк, хохлы на рестлмании жару дали :) , надо ещё разок качнуть :)

Создавать темы 13-Июл-2012 12:44

[Профиль]  [ЛС] 

LiX

Стаж: 6 лет 3 месяца

Сообщений: 254

Симпатии: 6

Мататя святьс в рулонеЭто в бою с Эджом и Гробовщиком bm bm

Создавать темы 13-Июл-2012 12:52

[Профиль]  [ЛС] 

Спартанец ®

Стаж: 5 лет 7 месяцев

Сообщений: 361

ыыыыыыыыыыы

Создавать темы 13-Июл-2012 14:53

[Профиль]  [ЛС] 

Kroys

Стаж: 5 лет 11 месяцев

Сообщений: 187

Симпатии: 1

СКРИНЫ где?)))

Создавать темы 13-Июл-2012 16:44

[Профиль]  [ЛС] 

Спартанец ®

Стаж: 5 лет 7 месяцев

Сообщений: 361

а млин ))) Глазастый ))

Создавать темы 13-Июл-2012 20:03

[Профиль]  [ЛС] 

Спартанец ®

Стаж: 5 лет 7 месяцев

Сообщений: 361

не могу "правку" сделать. Аякс эрор выходит bu

Создавать темы 13-Июл-2012 20:05

[Профиль]  [ЛС] 

Emil_Safa

Стаж: 5 лет 3 месяца

Сообщений: 102

Спасибо большое Спартанец,Jerry Lawler vs. Michael Cole интересный матч,помойму они еще на реслемании дрались.
Спартанец если есть возможность залей Рояль Рамбл 12 года.

Создавать темы 13-Июл-2012 21:33

[Профиль]  [ЛС] 

Emil_Safa

Стаж: 5 лет 3 месяца

Сообщений: 102

Недавно скачал антологию wwe тут,написано там можно драться со стульями и столами,кто играл скажите где они?
У кого есть внешка на русских трекерах найди нормальный реслинг скиньте мне в ЛС ссылку описание,скриншоты!
Скоро на счет закину если смогу скачаю=)

Создавать темы 14-Июл-2012 17:49

[Профиль]  [ЛС] 

Anicorn

Стаж: 5 лет 2 месяца

Сообщений: 51

Народ, встаньте на раздачу! Уже 4 дня качается, всего 17 процентов скачано...

Создавать темы 23-Июл-2012 15:08

[Профиль]  [ЛС] 

Спартанец ®

Стаж: 5 лет 7 месяцев

Сообщений: 361

Встал :)

Создавать темы 23-Июл-2012 16:02

[Профиль]  [ЛС] 

Kroys

Стаж: 5 лет 11 месяцев

Сообщений: 187

Симпатии: 1

Недавно скачал антологию wwe тут,написано там можно драться со стульями и столами,кто играл скажите где они?
У кого есть внешка на русских трекерах найди нормальный реслинг скиньте мне в ЛС ссылку описание,скриншоты!
Скоро на счет закину если смогу скачаю=)
тебе ссылку на рунэт ? где нормальный реслинг ?

Создавать темы 24-Июл-2012 22:44

[Профиль]  [ЛС] 
Показать сообщения:    
Ответить на тему

Текущее время: 20-Сен 19:51

Часовой пояс: UTC + 5



Вы не можете начинать темы
Вы не можете отвечать на сообщения
Вы не можете редактировать свои сообщения
Вы не можете удалять свои сообщения
Вы не можете голосовать в опросах
Вы не можете прикреплять файлы к сообщениям
Вы не можете скачивать файлы