[#18] Город бога / City of God (Фернанду Мейреллиш, Катя Люнд) [2002 г., драма, криминал]

Страницы :  1, 2  След.

Ответить на тему
 

qweqwe ®

Стаж: 6 лет 8 месяцев

Сообщений: 52

Симпатии: 10

Город бога / City of God
IMDB TOP 250: #18
Год выпуска: 2002
Страна: Бразилия, Франция
Жанр: драма, криминал
Продолжительность: 02:04:24
Режиссер: Фернанду Мейреллиш, Катя Люнд
В ролях: Александр Родригез, Леандро Фирмино, Феллипе Хаагенсен, Дуглас Силва, Джонатан Хаагенсен, Матеус Нахтергейл, Сеу Хорхе, Жефехандер Суплино, Алиси Брага, Эмерсон Гомес
Описание: 60-е годы XX века. «Город Бога» — квартал в Рио-де-Жанейро, где живут главные герои — 8-летний Ракета, мечтающий стать фотографом, и его одногодок Дадинью. Дадинью принимает участие в вооруженном ограблении, организованном живущим по соседству гангстером Кабалейрой; с согласия Кабалейры он совершает свое первое убийство.
70-е годы. Ракета постоянно балансирует между мелкими правонарушениями и честной жизнью. На счету у Дадинью уже несколько убийств. Он возглавляет банду, которой управляет, используя хитрость и хладнокровное предательство. Поняв, что настоящая власть и большие деньги может дать только контроль над торговлей наркотиками в их квартале, он безжалостно идет к своей цели.
80-е годы. Ракета наконец получает фотоаппарат и осуществляет свою детскую мечту. Мечта Дадинью тоже сбылась: в 18 лет он стал самым крутым торговцем наркотиками в Рио.
Вместе со своей армией юных хулиганов Дадинью безраздельно правит в квартале до тех пор, пока Мане Галинья не поклялся отомстить ему за то, что тот изнасиловал его подружку, и не решил убить его, чего бы это ни стоило. В фавеле начинается война…

MediaInfo

Format : AVI
Format/Info : Audio Video Interleave
File size : 1.37 GiB
Duration : 2h 4mn
Overall bit rate : 1 574 Kbps
Movie name : SENATORiNFO-TEAM
Director : Shvonder
Writing application : VirtualDubMod 1.5.4.1 (build 2178/release)
Copyright : www.senatorinfo.com
Comment : 30.03.2007
Video
ID : 0
Format : MPEG-4 Visual
Format profile : Advanced [email protected]
Format settings, BVOP : 1
Format settings, QPel : No
Format settings, GMC : No warppoints
Format settings, Matrix : Custom
Codec ID : XVID
Codec ID/Hint : XviD
Duration : 2h 4mn
Bit rate : 1 119 Kbps
Width : 640 pixels
Height : 352 pixels
Display aspect ratio : 16:9
Frame rate : 25.000 fps
Color space : YUV
Chroma subsampling : 4:2:0
Bit depth : 8 bits
Scan type : Progressive
Compression mode : Lossy
Bits/(Pixel*Frame) : 0.199
Stream size : 996 MiB (71%)
Writing library : XviD 1.2.0.dev47 (UTC 2006-11-01)
Audio
ID : 1
Format : AC-3
Format/Info : Audio Coding 3
Mode extension : CM (complete main)
Format settings, Endianness : Big
Codec ID : 2000
Duration : 2h 4mn
Bit rate mode : Constant
Bit rate : 448 Kbps
Channel(s) : 6 channels
Channel positions : Front: L C R, Side: L R, LFE
Sampling rate : 48.0 KHz
Bit depth : 16 bits
Compression mode : Lossy
Stream size : 399 MiB (28%)
Alignment : Split accross interleaves
Interleave, duration : 96 ms (2.40 video frames)
Interleave, preload duration : 96 ms

Скриншоты



Создавать темы 14-Июл-2012 00:23

[Профиль]  [ЛС] 

edo30.5

Стаж: 5 лет 4 месяца

Сообщений: 95

Симпатии: 1

Ваще классный фильм! Бандиты, перестрелки, мафия! Спасибо за фильм, qweqwe! Продолжай радовать нас своими раздачами!

Создавать темы 27-Авг-2012 10:14

[Профиль]  [ЛС] 

Proxa

Стаж: 5 лет 8 месяцев

Сообщений: 104

Симпатии: 4

а Где скриншоты исправьте пожалуйста

Создавать темы 27-Авг-2012 11:16

[Профиль]  [ЛС] 

axror4ik

Стаж: 5 лет 1 месяц

Сообщений: 4

Симпатии: 1

почему не поставили награды и бюджет

Создавать темы 08-Сен-2012 13:13

[Профиль]  [ЛС] 

edo30.5

Стаж: 5 лет 4 месяца

Сообщений: 95

Симпатии: 1

axror4ik, ты насчёт чего? Из-за того, что этого не написали в описании?

Создавать темы 08-Сен-2012 15:29

[Профиль]  [ЛС] 

edo30.5

Стаж: 5 лет 4 месяца

Сообщений: 95

Симпатии: 1

Ваще не понимаю - как дети могут носить пушки? Да и ещё как они умудряются упорно прятать их от родителей?

Создавать темы 08-Сен-2012 15:31

[Профиль]  [ЛС] 

dy8uk

Стаж: 6 лет 4 месяца

Сообщений: 105

Симпатии: 3

Отличное кино. Давно смотрел. А там и не надо прятать оружие: это же фавелы. И дети равняются на взрослых

Создавать темы 08-Сен-2012 21:19

[Профиль]  [ЛС] 

edo30.5

Стаж: 5 лет 4 месяца

Сообщений: 95

Симпатии: 1

Мда, даже не знаю, кто такие фавелы :( Всё-таки, я не вундеркинд, да и знать мне это не очень уж и обязательно. Ай ладно, посмотрю в Википедии, ради интереса. Но чтобы дети равнялись на взрослых - это немыслимо

Создавать темы 10-Сен-2012 15:11

[Профиль]  [ЛС] 

edo30.5

Стаж: 5 лет 4 месяца

Сообщений: 95

Симпатии: 1

Фавелы (порт. favela) — трущобы в городах Бразилии, часто расположенные на склонах гор. В фавелах отсутствует развитая инфраструктура и высок уровень преступности. Многие современные фавелы возникли в 1970-х годах вследствие ускорения процессов урбанизации в Бразилии
Случайно не это значит "Фавелы", dy8uk? Взял из Википедии
Вот ещё строчку нашёл в Вике:
Жизни обитателей фавел посвящён фильм бразильских режиссёров Фернандо Мейреллеса и Кати Лунд «Город Бога», а также фильм режиссёра Паоло Морелли «Город Бога 2»
Плюс немного прикола:
В Белу-Оризонти существует FM-радиостанция «Радио Фавела», вещающая из фавел
:D (тоже из Вики)

Создавать темы 10-Сен-2012 15:19

[Профиль]  [ЛС] 

knyaz31337

Стаж: 6 лет 5 месяцев

Сообщений: 396

Симпатии: 20

Не знаю, но мне кажется для 18 места фильм слабоват. Я сам реально стрелял из оружия и знаю какая отдача, особенно, когда стреляешь с одной руки. Е-мое! Тут шкеты восьми-десятилетние стреляют из "Валер" с одной руки и даже отдачи толком нет! Взять хотя бы последние кадры, когда малолетняя банда расстреливает Малыша. Ствол в одной руке, подряд несколько выстрелов и рука даже не дрогнула. На самом деле щегол в таком возрасте просто вывихнул бы кисть (я про попасть в цель вообще молчу). Не знаю, что конкретно хотел показать режиссер, но мне кажется у него не очень это получилось. Есть куда сильнее фильмы для 18 места.

Создавать темы 10-Сен-2012 16:12

[Профиль]  [ЛС] 

edo30.5

Стаж: 5 лет 4 месяца

Сообщений: 95

Симпатии: 1

Не знаю, но мне кажется для 18 места фильм слабоват. Я сам реально стрелял из оружия и знаю какая отдача, особенно, когда стреляешь с одной руки. Е-мое! Тут шкеты восьми-десятилетние стреляют из "Валер" с одной руки и даже отдачи толком нет! Взять хотя бы последние кадры, когда малолетняя банда расстреливает Малыша. Ствол в одной руке, подряд несколько выстрелов и рука даже не дрогнула. На самом деле щегол в таком возрасте просто вывихнул бы кисть (я про попасть в цель вообще молчу). Не знаю, что конкретно хотел показать режиссер, но мне кажется у него не очень это получилось. Есть куда сильнее фильмы для 18 места.
Я с тобой полностью согласен!

Создавать темы 10-Сен-2012 17:57

[Профиль]  [ЛС] 

mikelangello

Стаж: 7 лет 1 месяц

Сообщений: 125

Симпатии: 2

Молодое поколение сменяет старых. Мне же нравиться другое высказывание. На каждый болтик с резьбой найдеться гайка без резьбы.

Создавать темы 22-Сен-2012 14:59

[Профиль]  [ЛС] 

retynn

Стаж: 6 лет 6 месяцев

Сообщений: 15

классный фильм!

Создавать темы 12-Дек-2012 20:54

[Профиль]  [ЛС] 

WELCOME

Стаж: 6 лет 3 месяца

Сообщений: 1

Спасибо

Создавать темы 14-Дек-2012 10:05

[Профиль]  [ЛС] 

mansa_19

Стаж: 4 года 11 месяцев

Сообщений: 24

Симпатии: 4

спасибо, посмотрим надеюсь интересный )

Создавать темы 03-Янв-2013 23:01

[Профиль]  [ЛС] 
Показать сообщения:    
Ответить на тему

Текущее время: 22-Окт 04:22

Часовой пояс: UTC + 5



Вы не можете начинать темы
Вы не можете отвечать на сообщения
Вы не можете редактировать свои сообщения
Вы не можете удалять свои сообщения
Вы не можете голосовать в опросах
Вы не можете прикреплять файлы к сообщениям
Вы не можете скачивать файлы