[#14] Семь самураев / Seven Samurai (Акира Куросава) [1954 г., Драма, боевик]

Ответить на тему
 

qweqwe ®

Стаж: 6 лет 10 месяцев

Сообщений: 52

Симпатии: 10

Семь самураев / Seven Samurai
IMDB TOP 250: #14
Год выпуска: 1954
Страна: Япония
Жанр: Драма, боевик
Продолжительность: 03:21:22
Режиссер: Акира Куросава
В ролях: Тосиро Мифунэ, Такаси Симура, Йошио Инаба, Сейджи Мивагучи, Миноту Чиаки, Дайсуке Като, Исао Кимура, Каматари Фудживара
Описание: Япония. 16 век. В стране полыхает гражданская война, повсюду орудуют банды разбойников и мародеров. Бедные крестьяне нанимают для своей защиты семерых самураев, которые сплачивают раздробленных и малодушных жителей деревни в этой борьбе...
Семь человек - семь разных характеров. У каждого из нанятых самураев есть свои веские причины, чтобы согласиться на эту малооплачиваемую и рискованную работу: один, опытный воин, воспользовался возможностью приобрести верных друзей, другой одержим юношеским романтизмом. Аскет, отрешенный от всего, кроме оттачивания своего мастерства. Бедняк, рубивший дрова за чашку риса. Бывший крестьянин, весельчак, помогающий товарищам метким словцом в минуты опасности.
Куросава показывает яркие, выразительные и такие достоверные персонажи, что, кажется, всему происходящему зритель был свидетелем сам. Несмотря на реалистичность и беспощадность в подаче материала, картина пронизана высокой поэтикой и лиризмом, жизнеутверждающим пониманием и человечностью.

MediaInfo

Format : AVI
Format/Info : Audio Video Interleave
File size : 1.37 GiB
Duration : 3h 21mn
Overall bit rate : 973 Kbps
Writing application : VirtualDubMod 1.5.4.1 (build 2178/release)
Writing library : VirtualDubMod build 2178/release
Video
ID : 0
Format : MPEG-4 Visual
Format settings, BVOP : 1
Format settings, QPel : No
Format settings, GMC : No warppoints
Format settings, Matrix : Default (H.263)
Muxing mode : Packed bitstream
Codec ID : DX50
Codec ID/Hint : DivX 5
Duration : 3h 21mn
Bit rate : 774 Kbps
Width : 400 pixels
Height : 304 pixels
Display aspect ratio : 4:3
Frame rate : 25.000 fps
Color space : YUV
Chroma subsampling : 4:2:0
Bit depth : 8 bits
Scan type : Progressive
Compression mode : Lossy
Bits/(Pixel*Frame) : 0.255
Stream size : 1.09 GiB (80%)
Writing library : DivX 5.2.1 (WaffleDay) (UTC 2004-09-08)
Audio
ID : 1
Format : AC-3
Format/Info : Audio Coding 3
Mode extension : CM (complete main)
Format settings, Endianness : Big
Codec ID : 2000
Duration : 3h 21mn
Bit rate mode : Constant
Bit rate : 192 Kbps
Channel(s) : 2 channels
Channel positions : Front: L R
Sampling rate : 48.0 KHz
Bit depth : 16 bits
Compression mode : Lossy
Stream size : 277 MiB (20%)
Alignment : Split accross interleaves
Interleave, duration : 96 ms (2.40 video frames)
Interleave, preload duration : 96 ms
Language : Russian

Скриншоты



Создавать темы 14-Июл-2012 00:35

[Профиль]  [ЛС] 

Юлдашев Бахром

Стаж: 4 года 9 месяцев

Сообщений: 17

Симпатии: 3

-Спасибо за фильм!

Создавать темы 28-Мар-2013 20:03

[Профиль]  [ЛС] 

Бездущный

Стаж: 4 года

Сообщений: 73

Симпатии: 10

добавьте скорости пожалуйста!!!

Создавать темы 27-Янв-2014 21:31

[Профиль]  [ЛС] 

Бездущный

Стаж: 4 года

Сообщений: 73

Симпатии: 10

добавьте скорости почти докачал

Создавать темы 31-Янв-2014 14:47

[Профиль]  [ЛС] 
Показать сообщения:    
Ответить на тему

Текущее время: 15-Дек 07:30

Часовой пояс: UTC + 5



Вы не можете начинать темы
Вы не можете отвечать на сообщения
Вы не можете редактировать свои сообщения
Вы не можете удалять свои сообщения
Вы не можете голосовать в опросах
Вы не можете прикреплять файлы к сообщениям
Вы не можете скачивать файлы