WWE Friday Night Smackdown 13.07.2012 [2012 г., Реслинг, HDTV]

Ответить на тему
 

Спартанец ®

Стаж: 5 лет 8 месяцев

Сообщений: 361

WWE Friday Night Smackdown 13.07.2012
Год выпуска: 2012
Вид спорта: Реслинг
Участники: Звезды WWE
Продолжительность: 01.23.40
Комментарий: Профессиональный (многоголосый, закадровый)
Язык комментариев: Русский
Описание: Еженедельный выпуск WWE Friday Night Smackdown. Выпуск от 13-го июля 2012 года
Качество: HDTV
Формат: Mр4
Видео кодек: x264\AVC
Аудио кодек: AAC
Видео: MPEG4, Video, (H264), 704x400, 29.97fps, 1 441 Kbps
Аудио: AAC, 44100Hz, stereo, 1411kbps, 128 Kbps

Кард

1. Alberto Del Rio vs. Sin Cara
2. Primo and Epico vs. The Prime Time Players
3. Cody Rhodes and Dolph Ziggler vs. Christian and Santino Marella
4. Big Show vs. The Great Khali
5. Ryback vs. Tyler Reks
6. Damien Sandow vs. Justin Gabriel.
7. Sheamus vs. Chris Jericho

Скриншот



МедиаИнфо

General
Format : MPEG-4
Format profile : Base Media
Codec ID : isom
File size : 941 MiB
Duration : 1h 23mn
Overall bit rate mode : Variable
Overall bit rate : 1 573 Kbps
Encoded date : UTC 2012-07-13 11:33:30
Tagged date : UTC 2012-07-13 11:33:30
Writing application : Yamb 2.1.0.0 [http://yamb.unite-video.com]
Video
ID : 1
Format : AVC
Format/Info : Advanced Video Codec
Format profile : [email protected]
Format settings, CABAC : Yes
Format settings, ReFrames : 4 frames
Codec ID : avc1
Codec ID/Info : Advanced Video Coding
Duration : 1h 23mn
Bit rate : 1 441 Kbps
Maximum bit rate : 2 622 Kbps
Width : 704 pixels
Height : 400 pixels
Display aspect ratio : 16:9
Frame rate mode : Constant
Frame rate : 29.970 fps
Color space : YUV
Chroma subsampling : 4:2:0
Bit depth : 8 bits
Scan type : Progressive
Bits/(Pixel*Frame) : 0.171
Stream size : 862 MiB (92%)
Writing library : x264 core 125 r2200 999b753
Encoding settings : cabac=1 / ref=5 / deblock=1:0:0 / analyse=0x3:0x113 / me=umh / subme=9 / psy=1 / psy_rd=1.00:0.00 / mixed_ref=1 / me_range=16 / chroma_me=1 / trellis=1 / 8x8dct=1 / cqm=0 / deadzone=21,11 / fast_pskip=1 / chroma_qp_offset=-2 / threads=12 / lookahead_threads=2 / sliced_threads=0 / nr=0 / decimate=1 / interlaced=0 / bluray_compat=0 / constrained_intra=0 / bframes=3 / b_pyramid=1 / b_adapt=2 / b_bias=0 / direct=3 / weightb=1 / open_gop=0 / weightp=2 / keyint=300 / keyint_min=30 / scenecut=40 / intra_refresh=0 / rc_lookahead=40 / rc=crf / mbtree=1 / crf=19.0 / qcomp=0.60 / qpmin=0 / qpmax=69 / qpstep=4 / vbv_maxrate=1500 / vbv_bufsize=1450 / crf_max=0.0 / nal_hrd=none / ip_ratio=1.40 / aq=1:1.00
Encoded date : UTC 2011-09-08 11:43:25
Tagged date : UTC 2012-07-13 11:35:24
Audio
ID : 2
Format : AAC
Format/Info : Advanced Audio Codec
Format profile : LC
Codec ID : 40
Duration : 1h 23mn
Bit rate mode : Variable
Bit rate : 128 Kbps
Maximum bit rate : 159 Kbps
Channel(s) : 2 channels
Channel positions : Front: L R
Sampling rate : 44.1 KHz
Compression mode : Lossy
Stream size : 76.6 MiB (8%)
Encoded date : UTC 2012-07-13 11:35:19
Tagged date : UTC 2012-07-13 11:35:24

Создавать темы 15-Июл-2012 10:06

[Профиль]  [ЛС] 

McFLY

Стаж: 5 лет 7 месяцев

Сообщений: 658

Симпатии: 22

up

Создавать темы 15-Июл-2012 10:41

[Профиль]  [ЛС] 

Ala

Стаж: 6 лет 6 месяцев

Сообщений: 45

Синкара вообще огонь.. спс за релиз!

Создавать темы 15-Июл-2012 11:27

[Профиль]  [ЛС] 

Спартанец ®

Стаж: 5 лет 8 месяцев

Сообщений: 361

Не за что парни :) Качайте на здоровье pc

Создавать темы 15-Июл-2012 13:46

[Профиль]  [ЛС] 

NodirAgenT

Стаж: 6 лет 6 месяцев

Сообщений: 204

Списки победителей на сайте

_________________
Подпись отключена за нарушение правил форума

Создавать темы 16-Июл-2012 14:04

[Профиль]  [ЛС] 

Ala

Стаж: 6 лет 6 месяцев

Сообщений: 45

Спартанец, Слух когда новые выпуски будут?

Создавать темы 18-Июл-2012 21:14

[Профиль]  [ЛС] 

LiX

Стаж: 6 лет 4 месяца

Сообщений: 254

Симпатии: 6

И про MITB мне очень интересно узнать

Создавать темы 18-Июл-2012 22:06

[Профиль]  [ЛС] 

Спартанец ®

Стаж: 5 лет 8 месяцев

Сообщений: 361

Все сегодня. Ждите :)

Создавать темы 19-Июл-2012 08:32

[Профиль]  [ЛС] 
Показать сообщения:    
Ответить на тему

Текущее время: 18-Окт 10:54

Часовой пояс: UTC + 5



Вы не можете начинать темы
Вы не можете отвечать на сообщения
Вы не можете редактировать свои сообщения
Вы не можете удалять свои сообщения
Вы не можете голосовать в опросах
Вы не можете прикреплять файлы к сообщениям
Вы не можете скачивать файлы