ENG: Армагеддон / Armageddon (Майкл Бэй) [1998 г., драма, фантастика., DVDRip-AVC]

Ответить на тему
 

slaiderUZ ®

Стаж: 5 лет 11 месяцев

Сообщений: 172

Симпатии: 6

ENG: Армагеддон / Armageddon
Страна: США
Год выпуска: 1998
Жанр: драма, фантастика.
Продолжительность: 2h 24mn
Режиссер: Майкл Бэй
В ролях: Брюс Уиллис, Бен Аффлек, Лив Тайлер, Билли Боб Торнтон, Оуэн Уилсон, Стив Бушеми,Уильям Фихнер, Майкл Кларк Дункан, Петер Стормаре, Кен Хадсон Кэмпбелл, Джудит Хоаг, Джессика Стин, Кейт Дэвид, Джейсон Айзекс, Шоуни Смит, Джексон Майкл
Описание: Земля попадает под периодически повторяющиеся метеоритные обстрелы. Астроном-любитель замечает, что к Земле приближается гигантский астероид. Специалисты NASA рассчитывают, что если он упадёт на Землю, то погибнут даже бактерии. До столкновения остаются считанные дни. Может наступить Армагеддон, финал человеческой истории. Энергичный директор NASA перебирает все возможности. Один из его людей предлагает пробурить астероид и взорвать его изнутри атомной бомбой. «Представьте, что у вас на ладони взорвется петарда. Что случится? Лёгкий ожог, не более того. Но сожмите кулак, и... бутылки с кетчупом за вас до конца жизни будет открывать жена». Учёные изготавливают установку для бурения на других планетах, но работа не ладится, и они вызывают к себе её автора — потомственного бурильщика Гарри Стэмпера.
Качество: DVDRip
Формат: FLV
Видео кодек: AVC
Видео: DVD-Rip AVC, 550 Kbps, 640x272, 25.000 fps, 4:2:0
Аудио: ENGLISH, AAC, 173 Kbps, 6 channels, 44.1 KHz. LC

Media Info

D:\MOVIES\armageddon.flv
General
Complete name : D:\MOVIES\armageddon.flv
Format : Flash Video
File size : 762 MiB
Duration : 2h 24mn
Overall bit rate : 736 Kbps
Tagging application : Yet Another Metadata Injector for FLV - Version 1.4
Video
Format : AVC
Format/Info : Advanced Video Codec
Format profile : [email protected]
Format settings, CABAC : Yes
Format settings, ReFrames : 4 frames
Muxing mode : Container [email protected]
Duration : 2h 24mn
Bit rate : 54.6 Kbps
Nominal bit rate : 550 Kbps
Width : 640 pixels
Height : 272 pixels
Display aspect ratio : 2.35
Frame rate mode : Variable
Frame rate : 25.000 fps
Resolution : 24 bits
Colorimetry : 4:2:0
Scan type : Progressive
Bits/(Pixel*Frame) : 0.013
Stream size : 572 MiB (75%)
Writing library : x264 core 120
Encoding settings : cabac=1 / ref=3 / deblock=1:0:0 / analyse=0x3:0x113 / me=hex / subme=7 / psy=1 / psy_rd=1.00:0.00 / mixed_ref=1 / me_range=16 / chroma_me=1 / trellis=1 / 8x8dct=1 / cqm=0 / deadzone=21,11 / fast_pskip=1 / chroma_qp_offset=-2 / threads=3 / sliced_threads=0 / nr=0 / decimate=1 / interlaced=0 / bluray_compat=0 / constrained_intra=0 / bframes=3 / b_pyramid=2 / b_adapt=1 / b_bias=0 / direct=1 / weightb=1 / open_gop=0 / weightp=2 / keyint=50 / keyint_min=5 / scenecut=40 / intra_refresh=0 / rc_lookahead=40 / rc=abr / mbtree=1 / bitrate=550 / ratetol=1.0 / qcomp=0.60 / qpmin=0 / qpmax=69 / qpstep=4 / ip_ratio=1.40 / aq=1:1.00
Audio
Format : AAC
Format/Info : Advanced Audio Codec
Format version : Version 4
Format profile : LC
Format settings, SBR : No
Duration : 2h 24mn
Bit rate : 173 Kbps
Channel(s) : 6 channels
Channel positions : Front: L C R, Rear: L R, LFE
Sampling rate : 44.1 KHz
Resolution : 16 bits
Stream size : 187 MiB (25%)

Скриншоты









_________________
Подпись отключена за нарушение правил форума


Последний раз редактировалось: slaiderUZ (2012-07-18 17:36), всего редактировалось 5 раз(а)

Создавать темы 17-Июл-2012 18:42

[Профиль]  [ЛС] 

slaiderUZ ®

Стаж: 5 лет 11 месяцев

Сообщений: 172

Симпатии: 6

добавил media info

_________________
Подпись отключена за нарушение правил форума

Создавать темы 18-Июл-2012 10:49

[Профиль]  [ЛС] 

slaiderUZ ®

Стаж: 5 лет 11 месяцев

Сообщений: 172

Симпатии: 6

отдача 512-1024кбит
Upstream Line Rate 11XX

_________________
Подпись отключена за нарушение правил форума

Создавать темы 18-Июл-2012 17:38

[Профиль]  [ЛС] 

slaiderUZ ®

Стаж: 5 лет 11 месяцев

Сообщений: 172

Симпатии: 6

отдал 800 метров, раздача продолжится завтра вечером

_________________
Подпись отключена за нарушение правил форума

Создавать темы 18-Июл-2012 22:44

[Профиль]  [ЛС] 

Азизи

Стаж: 5 лет 7 месяцев

Сообщений: 22

спасибо качаем

Создавать темы 18-Авг-2012 17:34

[Профиль]  [ЛС] 

slaiderUZ ®

Стаж: 5 лет 11 месяцев

Сообщений: 172

Симпатии: 6

не за что, раздаем)))

_________________
Подпись отключена за нарушение правил форума

Создавать темы 21-Авг-2012 19:04

[Профиль]  [ЛС] 

Azka

Стаж: 5 лет 7 месяцев

Сообщений: 3

пожалуйста, кто нибудь посидите на раздаче

Создавать темы 09-Июн-2014 12:31

[Профиль]  [ЛС] 
Показать сообщения:    
Ответить на тему

Текущее время: 14-Дек 23:49

Часовой пояс: UTC + 5



Вы не можете начинать темы
Вы не можете отвечать на сообщения
Вы не можете редактировать свои сообщения
Вы не можете удалять свои сообщения
Вы не можете голосовать в опросах
Вы не можете прикреплять файлы к сообщениям
Вы не можете скачивать файлы