PPV WWE - 2012.07.15 - Money In The Bank 2012 (Pre-show) [2012 г., Реслинг, HDTV]

Ответить на тему
 

Спартанец ®

Стаж: 5 лет 7 месяцев

Сообщений: 361

- Год выпуска: 2012
Вид спорта: Реслинг
Участники: Звезды WWE
Продолжительность: 00.27.51
Комментарий: Профессиональный (многоголосый, закадровый)
Язык комментариев: Русский
Описание: Money in the Bank — это pay-per-view (ППВ) шоу которое проводит World Wrestling Entertainment. Шоу прошло 15 июля 2012 года в ЮС Эйрвейс-центре, Финикс, Аризона, США. Концепция шоу основана вокруг битвы с лестницами «Деньги в банке». Третье ППВ «Money in the Bank» и девятое ППВ, которое проводит битву «Деньги в банке».
Качество: HDTV
Формат: Mр4
Видео кодек: AVC/x264
Аудио кодек: AAC
Видео: MPEG4, Video, (H264), 704x400, 24fps, 1 427 Kbps
Аудио: AAC, 44100Hz, stereo, 127 Kbps

Кард

Бой за титул командных чемпионовКофи Кингстон и Эр Труф против Комачо и Унико

Скриншоты



МедиаИнфо

General
Format : MPEG-4
Format profile : Base Media
Codec ID : isom
File size : 310 MiB
Duration : 27mn 50s
Overall bit rate mode : Variable
Overall bit rate : 1 558 Kbps
Encoded date : UTC 2012-07-15 16:44:34
Tagged date : UTC 2012-07-15 16:44:34
Writing application : Yamb 2.1.0.0 [http://yamb.unite-video.com]
Video
ID : 2
Format : AVC
Format/Info : Advanced Video Codec
Format profile : [email protected]
Format settings, CABAC : Yes
Format settings, ReFrames : 3 frames
Codec ID : avc1
Codec ID/Info : Advanced Video Coding
Duration : 27mn 50s
Bit rate mode : Constant
Bit rate : 1 427 Kbps
Nominal bit rate : 1 500 Kbps / 1 500 Kbps
Maximum bit rate : 2 412 Kbps
Width : 704 pixels
Height : 400 pixels
Display aspect ratio : 16:9
Frame rate mode : Constant
Frame rate : 24.000 fps
Standard : NTSC
Color space : YUV
Chroma subsampling : 4:2:0
Bit depth : 8 bits
Scan type : Progressive
Bits/(Pixel*Frame) : 0.211
Stream size : 284 MiB (92%)
Writing library : x264 core 114
Encoding settings : cabac=1 / ref=3 / deblock=1:0:0 / analyse=0x3:0x113 / me=hex / subme=7 / psy=1 / psy_rd=1.00:0.00 / mixed_ref=1 / me_range=16 / chroma_me=1 / trellis=1 / 8x8dct=1 / cqm=2 / deadzone=21,11 / fast_pskip=1 / chroma_qp_offset=-2 / threads=6 / sliced_threads=0 / slices=1 / nr=0 / decimate=1 / interlaced=0 / constrained_intra=0 / bframes=3 / b_pyramid=0 / b_adapt=1 / b_bias=0 / direct=1 / weightb=1 / open_gop=0 / weightp=2 / keyint=250 / keyint_min=24 / scenecut=40 / intra_refresh=0 / rc_lookahead=40 / rc=cbr / mbtree=1 / bitrate=1500 / ratetol=1.0 / qcomp=0.60 / qpmin=3 / qpmax=69 / qpstep=4 / vbv_maxrate=1500 / vbv_bufsize=1490 / nal_hrd=cbr / ip_ratio=1.40 / aq=1:1.00
Tagged date : UTC 2012-07-15 16:45:53
Color primaries : BT.601-6 525, BT.1358 525, BT.1700 NTSC, SMPTE 170M
Transfer characteristics : BT.601-6 525, BT.601-6 625, BT.1358 525, BT.1358 625, BT.1700 NTSC, SMPTE 170M
Matrix coefficients : BT.601-6 525, BT.1358 525, BT.1700 NTSC, SMPTE 170M
Audio
ID : 3
Format : AAC
Format/Info : Advanced Audio Codec
Format profile : LC
Codec ID : 40
Duration : 27mn 50s
Bit rate mode : Variable
Bit rate : 127 Kbps
Maximum bit rate : 171 Kbps
Channel(s) : 2 channels
Channel positions : Front: L R
Sampling rate : 44.1 KHz
Compression mode : Lossy
Stream size : 25.4 MiB (8%)
Encoded date : UTC 2012-07-15 16:45:50
Tagged date : UTC 2012-07-15 16:45:53


Последний раз редактировалось: Спартанец (2012-07-19 09:09), всего редактировалось 1 раз

Создавать темы 19-Июл-2012 08:51

[Профиль]  [ЛС] 

nikita

Стаж: 6 лет 11 месяцев

Сообщений: 82

Симпатии: 4

это че один бой так идет??? Продолжительность: 02.49.42

Создавать темы 19-Июл-2012 08:59

[Профиль]  [ЛС] 

Спартанец ®

Стаж: 5 лет 7 месяцев

Сообщений: 361

Сорь, попутал. Время основного шоу написал ) Исправлю

Создавать темы 19-Июл-2012 09:06

[Профиль]  [ЛС] 
Показать сообщения:    
Ответить на тему

Текущее время: 23-Сен 07:07

Часовой пояс: UTC + 5



Вы не можете начинать темы
Вы не можете отвечать на сообщения
Вы не можете редактировать свои сообщения
Вы не можете удалять свои сообщения
Вы не можете голосовать в опросах
Вы не можете прикреплять файлы к сообщениям
Вы не можете скачивать файлы