PPV WWE - 2012.07.15 - Money In The Bank 2012 [2012 г., Реслинг, HDTV]

Страницы :  1, 2  След.

Ответить на тему
 

Спартанец ®

Стаж: 5 лет 6 месяцев

Сообщений: 361

- Год выпуска: 2012
Вид спорта: Реслинг
Участники: Звезды WWE
Продолжительность: 02.49.42
Комментарий: Профессиональный (многоголосый, закадровый)
Язык комментариев: Русский
Описание: Money in the Bank — это pay-per-view (ППВ) шоу которое проводит World Wrestling Entertainment. Шоу прошло 15 июля 2012 года в ЮС Эйрвейс-центре, Финикс, Аризона, США. Концепция шоу основана вокруг битвы с лестницами «Деньги в банке». Третье ППВ «Money in the Bank» и девятое ППВ, которое проводит битву «Деньги в банке».
Качество: HDTV
Формат: Mр4
Видео кодек: AVC/x264
Аудио кодек: AAC
Видео: MPEG4, Video, (H264), 704x400, 29.97fps, 1 446 Kbps
Аудио: AAC, 44100Hz, stereo, 128 Kbps

Кард

Money in the Bank Ladder Match for a WWE Championship Contract
Big Show vs. Kane vs. Chris Jericho vs. John Cena
WWE Championship with AJ as special guest referee
CM Punk vs. Daniel Bryan
Money in the Bank Ladder Match for a World Heavyweight Championship Contract
Damien Sandow vs. Tyson Kidd vs. Christian vs. Santino Marella vs. Tensai vs. Cody Rhodes vs. Dolph Ziggler vs. Sin Cara
World Heavyweight Championship
Sheamus vs. Alberto Del Rio

Скриншоты



МедиаИнфо

General
Format : MPEG-4
Format profile : Base Media
Codec ID : isom
File size : 1.87 GiB
Duration : 2h 49mn
Overall bit rate mode : Variable
Overall bit rate : 1 579 Kbps
Encoded date : UTC 2012-07-15 16:48:13
Tagged date : UTC 2012-07-15 16:48:13
Writing application : Yamb 2.1.0.0 [http://yamb.unite-video.com]
Video
ID : 1
Format : AVC
Format/Info : Advanced Video Codec
Format profile : [email protected]
Format settings, CABAC : Yes
Format settings, ReFrames : 4 frames
Codec ID : avc1
Codec ID/Info : Advanced Video Coding
Duration : 2h 49mn
Bit rate : 1 446 Kbps
Maximum bit rate : 2 385 Kbps
Width : 704 pixels
Height : 400 pixels
Display aspect ratio : 16:9
Frame rate mode : Constant
Frame rate : 29.970 fps
Color space : YUV
Chroma subsampling : 4:2:0
Bit depth : 8 bits
Scan type : Progressive
Bits/(Pixel*Frame) : 0.171
Stream size : 1.71 GiB (92%)
Writing library : x264 core 125 r2200 999b753
Encoding settings : cabac=1 / ref=5 / deblock=1:0:0 / analyse=0x3:0x113 / me=umh / subme=9 / psy=1 / psy_rd=1.00:0.00 / mixed_ref=1 / me_range=16 / chroma_me=1 / trellis=1 / 8x8dct=1 / cqm=0 / deadzone=21,11 / fast_pskip=1 / chroma_qp_offset=-2 / threads=12 / lookahead_threads=2 / sliced_threads=0 / nr=0 / decimate=1 / interlaced=0 / bluray_compat=0 / constrained_intra=0 / bframes=3 / b_pyramid=1 / b_adapt=2 / b_bias=0 / direct=3 / weightb=1 / open_gop=0 / weightp=2 / keyint=300 / keyint_min=30 / scenecut=40 / intra_refresh=0 / rc_lookahead=40 / rc=crf / mbtree=1 / crf=19.0 / qcomp=0.60 / qpmin=0 / qpmax=69 / qpstep=4 / vbv_maxrate=1500 / vbv_bufsize=1450 / crf_max=0.0 / nal_hrd=none / ip_ratio=1.40 / aq=1:1.00
Encoded date : UTC 2011-09-08 11:43:25
Tagged date : UTC 2012-07-15 16:50:38
Audio
ID : 2
Format : AAC
Format/Info : Advanced Audio Codec
Format profile : LC
Codec ID : 40
Duration : 2h 49mn
Bit rate mode : Variable
Bit rate : 128 Kbps
Maximum bit rate : 166 Kbps
Channel(s) : 2 channels
Channel positions : Front: L R
Sampling rate : 44.1 KHz
Compression mode : Lossy
Stream size : 155 MiB (8%)
Encoded date : UTC 2012-07-15 16:50:33
Tagged date : UTC 2012-07-15 16:50:38

Создавать темы 19-Июл-2012 09:03

[Профиль]  [ЛС] 

Спартанец ®

Стаж: 5 лет 6 месяцев

Сообщений: 361

Готово пацаны :) Налетай MP3

Создавать темы 19-Июл-2012 09:05

[Профиль]  [ЛС] 

nikita

Стаж: 6 лет 10 месяцев

Сообщений: 82

Симпатии: 4

вот это другое дела.налетаем

Создавать темы 19-Июл-2012 09:08

[Профиль]  [ЛС] 

McFLY

Стаж: 5 лет 5 месяцев

Сообщений: 658

Симпатии: 22

+5 в репу :) с обеда начну лить. Долгожданная раздача, спасибо!

Создавать темы 19-Июл-2012 09:26

[Профиль]  [ЛС] 

Спартанец ®

Стаж: 5 лет 6 месяцев

Сообщений: 361

Не за что :) Постараюсь днем раздавать. Но ночью - железно.

Создавать темы 19-Июл-2012 09:30

[Профиль]  [ЛС] 

LiX

Стаж: 6 лет 2 месяца

Сообщений: 254

Симпатии: 6

Вот за это биг спс! Порадовал

Создавать темы 19-Июл-2012 10:16

[Профиль]  [ЛС] 

Спартанец ®

Стаж: 5 лет 6 месяцев

Сообщений: 361

Не за что ) Буду позже, продолжу раздачу.

Создавать темы 19-Июл-2012 10:26

[Профиль]  [ЛС] 

Anicorn

Стаж: 5 лет 1 месяц

Сообщений: 51

Спасибо! Помнится по 2х2 смотрел, пока не выключили. Классное шоу! Я так понял будут еженедельные релизы?

Создавать темы 19-Июл-2012 12:50

[Профиль]  [ЛС] 

LiX

Стаж: 6 лет 2 месяца

Сообщений: 254

Симпатии: 6

Спасибо! Помнится по 2х2 смотрел, пока не выключили. Классное шоу! Я так понял будут еженедельные релизы?
Нет это пейпервью - т.е. события которые проходят раз в месяц! А еженедельные это RAW и Smackdown cb

Создавать темы 19-Июл-2012 13:01

[Профиль]  [ЛС] 

Anicorn

Стаж: 5 лет 1 месяц

Сообщений: 51

Я немного не в той теме сообщение написал, так то качаю все релизы с RAW и Smackdown.

Создавать темы 19-Июл-2012 14:50

[Профиль]  [ЛС] 

Vovo4ka

Стаж: 6 лет 1 месяц

Сообщений: 160

Симпатии: 11

Спасибо Спартанец

Создавать темы 21-Июл-2012 15:02

[Профиль]  [ЛС] 

CM Punk

Стаж: 5 лет 7 месяцев

Сообщений: 24

Сиды вернитесь

Создавать темы 19-Авг-2012 16:01

[Профиль]  [ЛС] 

CM Punk

Стаж: 5 лет 7 месяцев

Сообщений: 24

Вернитесь сиды!!!!!!!!
Ошибка в релизе
Вид спорта:Реслинг а надо написать Рестлинг

Создавать темы 21-Авг-2012 16:54

[Профиль]  [ЛС] 

Спартанец ®

Стаж: 5 лет 6 месяцев

Сообщений: 361

Вернитесь сиды!!!!!!!!
Ошибка в релизе
Вид спорта:Реслинг а надо написать Рестлинг
http://ru.wikipedia.org/wiki/%D0%A0%D0%B5%D1%81%D0%...0%B8%D0%BD%D0%B3

Создавать темы 21-Авг-2012 19:41

[Профиль]  [ЛС] 

CM Punk

Стаж: 5 лет 7 месяцев

Сообщений: 24

Спартанец, Ок не буду спорить с википедией)))
СИДЫ ВЕРНИТЕСЬ!!!! Докачать дайте

Создавать темы 27-Авг-2012 14:50

[Профиль]  [ЛС] 
Показать сообщения:    
Ответить на тему

Текущее время: 18-Авг 17:50

Часовой пояс: UTC + 5



Вы не можете начинать темы
Вы не можете отвечать на сообщения
Вы не можете редактировать свои сообщения
Вы не можете удалять свои сообщения
Вы не можете голосовать в опросах
Вы не можете прикреплять файлы к сообщениям
Вы не можете скачивать файлы