WWE Monday Night Raw 2012/07/16 [2012 г., Реслинг, HDTV]

Ответить на тему
 

Спартанец ®

Стаж: 5 лет 7 месяцев

Сообщений: 361

WWE Monday Night Raw 2012/07/16
Год выпуска: 2012
Вид спорта: Реслинг
Участники: Звезды WWE
Продолжительность: 01.30.54
Комментарий: Профессиональный (многоголосый, закадровый)
Язык комментариев: Русский
Описание: Еженедельный выпуск Monday Night Raw. Выпуск от 16-го июля 2012 года (999-ы выпуск)
Качество: HDTV
Формат: Mр4
Видео кодек: AVC/x264
Аудио кодек: AAC
Видео: MPEG4, Video, (H264), 720x406, 29.97fps, 1 406 Kbps
Аудио: AAC, 44100Hz, stereo, 128 Kbps

Cкриншоты



МедиаИнфо

General
Format : MPEG-4
Format profile : Base Media
Codec ID : isom
File size : 1 000 MiB
Duration : 1h 30mn
Overall bit rate mode : Variable
Overall bit rate : 1 538 Kbps
Encoded date : UTC 2012-07-16 16:35:35
Tagged date : UTC 2012-07-16 16:35:35
Writing application : Yamb 2.1.0.0 [http://yamb.unite-video.com]
Video
ID : 1
Format : AVC
Format/Info : Advanced Video Codec
Format profile : [email protected]
Format settings, CABAC : Yes
Format settings, ReFrames : 5 frames
Codec ID : avc1
Codec ID/Info : Advanced Video Coding
Duration : 1h 30mn
Bit rate : 1 406 Kbps
Maximum bit rate : 6 813 Kbps
Width : 720 pixels
Height : 406 pixels
Display aspect ratio : 16:9
Frame rate mode : Constant
Frame rate : 29.970 fps
Color space : YUV
Chroma subsampling : 4:2:0
Bit depth : 8 bits
Scan type : Progressive
Bits/(Pixel*Frame) : 0.160
Stream size : 914 MiB (91%)
Writing library : x264 core 125 r2200 999b753
Encoding settings : cabac=1 / ref=5 / deblock=1:0:0 / analyse=0x3:0x113 / me=umh / subme=8 / psy=1 / psy_rd=1.00:0.00 / mixed_ref=1 / me_range=16 / chroma_me=1 / trellis=1 / 8x8dct=1 / cqm=0 / deadzone=21,11 / fast_pskip=1 / chroma_qp_offset=-2 / threads=12 / lookahead_threads=2 / sliced_threads=0 / nr=0 / decimate=1 / interlaced=0 / bluray_compat=0 / constrained_intra=0 / bframes=3 / b_pyramid=2 / b_adapt=2 / b_bias=0 / direct=3 / weightb=1 / open_gop=0 / weightp=2 / keyint=250 / keyint_min=25 / scenecut=40 / intra_refresh=0 / rc_lookahead=50 / rc=crf / mbtree=1 / crf=24.0 / qcomp=0.60 / qpmin=0 / qpmax=69 / qpstep=4 / ip_ratio=1.40 / aq=1:1.00
Encoded date : UTC 2012-07-17 06:39:05
Tagged date : UTC 2012-07-16 16:36:30
Matrix coefficients : BT.709-5, BT.1361, IEC 61966-2-4 709, SMPTE RP177
Audio
ID : 2
Format : AAC
Format/Info : Advanced Audio Codec
Format profile : LC
Codec ID : 40
Duration : 1h 30mn
Bit rate mode : Variable
Bit rate : 128 Kbps
Maximum bit rate : 166 Kbps
Channel(s) : 2 channels
Channel positions : Front: L R
Sampling rate : 44.1 KHz
Compression mode : Lossy
Stream size : 83.2 MiB (8%)
Encoded date : UTC 2012-07-16 16:36:22
Tagged date : UTC 2012-07-16 16:36:30

Создавать темы 19-Июл-2012 09:27

[Профиль]  [ЛС] 

nikita

Стаж: 6 лет 11 месяцев

Сообщений: 82

Симпатии: 4

уже близко 1000-ы Raw.ждем

Создавать темы 19-Июл-2012 14:16

[Профиль]  [ЛС] 

NodirAgenT

Стаж: 6 лет 5 месяцев

Сообщений: 204

Всем Привет Спс За Релиз И Завтра Залью куда нить Ролики промо (Суперстаров) Мб вы их уже видели ) Вы сами отписывайте То что вам нуно Сделаю В разделе Заказы еси нету ща будет

_________________
Подпись отключена за нарушение правил форума

Создавать темы 19-Июл-2012 15:04

[Профиль]  [ЛС] 

McFLY

Стаж: 5 лет 7 месяцев

Сообщений: 658

Симпатии: 22

ну если не ошибаюсь этот №999

Создавать темы 19-Июл-2012 15:53

[Профиль]  [ЛС] 

NodirAgenT

Стаж: 6 лет 5 месяцев

Сообщений: 204

Я тож не смарел ващет А Raw 1000 Покажут по тв

_________________
Подпись отключена за нарушение правил форума

Создавать темы 20-Июл-2012 10:51

[Профиль]  [ЛС] 

LiX

Стаж: 6 лет 4 месяца

Сообщений: 254

Симпатии: 6

NodirAgenT, ну зачем ты написал кто выиграл? Многие ещё не посмотрели((((

Создавать темы 20-Июл-2012 12:10

[Профиль]  [ЛС] 

McFLY

Стаж: 5 лет 7 месяцев

Сообщений: 658

Симпатии: 22

хех :(

Создавать темы 20-Июл-2012 13:23

[Профиль]  [ЛС] 

Спартанец ®

Стаж: 5 лет 7 месяцев

Сообщений: 361

говорю же. Результаты пишите
сюда
bu

Создавать темы 20-Июл-2012 23:11

[Профиль]  [ЛС] 
Показать сообщения:    
Ответить на тему

Текущее время: 25-Сен 21:59

Часовой пояс: UTC + 5



Вы не можете начинать темы
Вы не можете отвечать на сообщения
Вы не можете редактировать свои сообщения
Вы не можете удалять свои сообщения
Вы не можете голосовать в опросах
Вы не можете прикреплять файлы к сообщениям
Вы не можете скачивать файлы