[#31] Леон: Профессионал / Leon, The Professional (Люк Бессон) [1994 г., Драма, триллер, боевик, криминал]

Страницы :  1, 2, 3  След.

Ответить на тему
 

qweqwe ®

Стаж: 6 лет 9 месяцев

Сообщений: 52

Симпатии: 10

Леон: Профессионал / Leon, The Professional
Год выпуска: 1994
Страна: США, Франция
Жанр: Драма, триллер, боевик, криминал
Продолжительность: 02:12:50
Режиссер: Люк Бессон
В ролях: Жан Рено, Гэри Олдмэн, Натали Портман, Дэнни Айелло, Питер Эппел, Майкл Бадалуччо, Эллен Грин, Фрэнк Сенгер
Описание: Жан Рено в роли наемного убийцы (работает он более, чем профессионально) становится невольным свидетелем убийства семьи соседей. В живых осталась только девочка лет 12, которая вышла в магазин за покупками и, кстати, предложила и ему купить молока, зная эту его особенность. Когда она вернулась из магазина, он открыл ей дверь и оставил у себя, нарушив таким образом неписаные правила своей профессии. Он и до этого сочувствовал девчонке (обаятельная Натали Портман, которую Бессон заставил выглядеть сексуальной нимфеткой), а через некоторое время она стала для него единственным смыслом его аскетической жизни. Девочка видела убийц. Особенно она переживала смерть четырехлетнего братишки. Она попросила его обучить ее тонкостям ремесла. Случай раскрыл ей личность убийцы - психопатического работника прокуратуры высшего звена, занимавшегося наркотиками (небольшая, но блестящая роль Олдмэна). Она решила убить его сама, но... Хотелось бы рассказать все содержание этой завораживающей, такой по-европейски сделанной драмы, но это нарушило бы мои правила. Вам будет менее интересно смотреть, хотя это, по-моему, невозможно. Дэнни Айелло в небольшой роли друга и работодателя профессионала.
Аудио 1: 48000 Гц, 6 каналов, 384 Кбит/сек русский многоголосый
Аудио 2: 48000 Гц, 6 каналов, 384 Кбит/сек русский одноголосый
Аудио 3: 48000 Гц, 6 каналов, 384 Кбит/сек английский оригинал
Видео: 720 x 304 (45:19) XVID (XviD MPEG-4 codec)

MediaInfo

Format : AVI
Format/Info : Audio Video Interleave
Format profile : OpenDML
File size : 2.91 GiB
Duration : 2h 12mn
Overall bit rate : 3 137 Kbps
Movie name : Леон [режиссерская версия] / Leon [director's cut] (1994)
Director : MaLLIeHbKa
Writing application : VirtualDubMod 1.5.10.2 (build 2540/release)
Copyright : torrents.ru
Comment : 28.10.2008
Video
ID : 0
Format : MPEG-4 Visual
Format profile : Advanced [email protected]
Format settings, BVOP : 1
Format settings, QPel : No
Format settings, GMC : No warppoints
Format settings, Matrix : Default (H.263)
Codec ID : XVID
Codec ID/Hint : XviD
Duration : 2h 12mn
Bit rate : 1 965 Kbps
Width : 720 pixels
Height : 304 pixels
Display aspect ratio : 2.35:1
Frame rate : 23.976 fps
Color space : YUV
Chroma subsampling : 4:2:0
Bit depth : 8 bits
Scan type : Progressive
Compression mode : Lossy
Bits/(Pixel*Frame) : 0.374
Stream size : 1.82 GiB (63%)
Writing library : XviD 1.2.0.dev47 (UTC 2006-11-01)
Audio #1
ID : 1
Format : AC-3
Format/Info : Audio Coding 3
Mode extension : CM (complete main)
Format settings, Endianness : Big
Codec ID : 2000
Duration : 2h 12mn
Bit rate mode : Constant
Bit rate : 384 Kbps
Channel(s) : 6 channels
Channel positions : Front: L C R, Side: L R, LFE
Sampling rate : 48.0 KHz
Bit depth : 16 bits
Compression mode : Lossy
Stream size : 365 MiB (12%)
Alignment : Split accross interleaves
Interleave, duration : 42 ms (1.00 video frame)
Interleave, preload duration : 500 ms
Audio #2
ID : 2
Format : AC-3
Format/Info : Audio Coding 3
Mode extension : CM (complete main)
Format settings, Endianness : Big
Codec ID : 2000
Duration : 2h 12mn
Bit rate mode : Constant
Bit rate : 384 Kbps
Channel(s) : 6 channels
Channel positions : Front: L C R, Side: L R, LFE
Sampling rate : 48.0 KHz
Bit depth : 16 bits
Compression mode : Lossy
Stream size : 365 MiB (12%)
Alignment : Split accross interleaves
Interleave, duration : 42 ms (1.00 video frame)
Interleave, preload duration : 500 ms
Audio #3
ID : 3
Format : AC-3
Format/Info : Audio Coding 3
Mode extension : CM (complete main)
Format settings, Endianness : Big
Codec ID : 2000
Duration : 2h 12mn
Bit rate mode : Constant
Bit rate : 384 Kbps
Channel(s) : 6 channels
Channel positions : Front: L C R, Side: L R, LFE
Sampling rate : 48.0 KHz
Bit depth : 16 bits
Compression mode : Lossy
Stream size : 365 MiB (12%)
Alignment : Split accross interleaves
Interleave, duration : 42 ms (1.00 video frame)
Interleave, preload duration : 500 ms

Скриншоты





Последний раз редактировалось: qweqwe (2012-07-20 23:19), всего редактировалось 2 раз(а)

Создавать темы 19-Июл-2012 22:58

[Профиль]  [ЛС] 

Robot-IX

Стаж: 5 лет 7 месяцев

Сообщений: 223

Симпатии: 9

нууу дрогой qweqwe, такие фильмы в HD надо давать...!

Создавать темы 20-Июл-2012 12:18

[Профиль]  [ЛС] 

IQBOT

Стаж: 6 лет 9 месяцев

Сообщений: 449

Симпатии: 81

Robot-IX, можно же воспользоваться поиском ;)
Леон / Leon (Люк Бессон) [1994 г., драма, триллер, боевик, криминал, HDTV]

Создавать темы 20-Июл-2012 12:31

[Профиль]  [ЛС] 

рыжий

Стаж: 7 лет 6 месяцев

Сообщений: 169

Симпатии: 130

qweqwe, добавьте-ка информацию подробную по аудио-дорожкам.

Создавать темы 20-Июл-2012 17:13

[Профиль]  [ЛС] 

qweqwe ®

Стаж: 6 лет 9 месяцев

Сообщений: 52

Симпатии: 10

qweqwe, добавьте-ка информацию подробную по аудио-дорожкам.
Добавлено

Создавать темы 20-Июл-2012 23:20

[Профиль]  [ЛС] 

ScorpiuS

Стаж: 7 лет 2 месяца

Сообщений: 206

Симпатии: 122

Размещение релизов в данном разделе, которые уже есть в основном разделе "Зарубежное кино" не считаются повтором

Создавать темы 21-Июл-2012 10:04

[Профиль]  [ЛС] 

рыжий

Стаж: 7 лет 6 месяцев

Сообщений: 169

Симпатии: 130

qweqwe, Desertboy, прекратите оба!

Создавать темы 21-Июл-2012 17:35

[Профиль]  [ЛС] 

MR.JOJO

Стаж: 5 лет 4 месяца

Сообщений: 38

Симпатии: 2

дайте speed plizzzzzzz....

Создавать темы 28-Июл-2012 17:22

[Профиль]  [ЛС] 

murodjon

Стаж: 6 лет 9 месяцев

Сообщений: 163

Симпатии: 10

Спасиба качаем надеюсь скорость будет приличной !

Создавать темы 30-Июл-2012 10:27

[Профиль]  [ЛС] 

MR.JOJO

Стаж: 5 лет 4 месяца

Сообщений: 38

Симпатии: 2

уменя не качает!! дайте раздачу...

Создавать темы 10-Авг-2012 16:12

[Профиль]  [ЛС] 

MR.JOJO

Стаж: 5 лет 4 месяца

Сообщений: 38

Симпатии: 2

что мне делат !!! 20тдней так стоит...

Создавать темы 10-Авг-2012 16:13

[Профиль]  [ЛС] 

stalones

Стаж: 6 лет 9 месяцев

Сообщений: 157

Симпатии: 37

класный фильм, я его в детстве наверно раз 20 пересматрел.Советую всем киноманам.

Создавать темы 17-Авг-2012 18:25

[Профиль]  [ЛС] 

Tyrael7774

Стаж: 5 лет 3 месяца

Сообщений: 76

Симпатии: 1

Хороший Фильм! ag

Создавать темы 20-Авг-2012 19:02

[Профиль]  [ЛС] 

beck2112

Стаж: 5 лет 5 месяцев

Сообщений: 3

Симпатии: 1

dayte skorost ,
slishkom dolgo kachaet

Создавать темы 21-Авг-2012 00:44

[Профиль]  [ЛС] 

maestron

Стаж: 5 лет 10 месяцев

Сообщений: 97

Симпатии: 2

Пожалуй лучший фильм с Жаном Рено!

Создавать темы 24-Авг-2012 02:57

[Профиль]  [ЛС] 
Показать сообщения:    
Ответить на тему

Текущее время: 19-Ноя 15:34

Часовой пояс: UTC + 5



Вы не можете начинать темы
Вы не можете отвечать на сообщения
Вы не можете редактировать свои сообщения
Вы не можете удалять свои сообщения
Вы не можете голосовать в опросах
Вы не можете прикреплять файлы к сообщениям
Вы не можете скачивать файлы