The Undertaker - He Buries Them Alive [2003 г., Реслинг, DVDRip]

Ответить на тему
 

Спартанец ®

Стаж: 5 лет 7 месяцев

Сообщений: 361

The Undertaker - He Buries Them Alive

Год выпуска: 2003
Вид спорта: Реслинг
Участники: Звезды WWE
Продолжительность: 00.53.54
Комментарий: Профессиональный (многоголосый, закадровый)
Анонсер матчей: Ted DiBiase
Описание: Видео содержит 5 боёв Гробовщика, прошедших в 1994 году.
Качество: DVDRip
Формат: AVI
Видео кодек: XviD
Аудио кодек: MP3
Видео: 512x384 (4:3),25 fps,1391 kbps
Аудио: 48 Khz,2ch,112 kbps

Скриншоты



Кард

Undertaker vs. fake Undertaker (SummerSlam 1994)
Undertaker vs. Kwang (Raw, 1994 г)
Undertaker vs. Yokozuna (Survivor Series 1994)
Undertaker vs. Jim "The Anvil" Neidhart (Superstars, 1994 г)
Undertaker vs. Jerry "The King" Lawler (1994 г.)

МедиаИнфо

General
Format : AVI
Format/Info : Audio Video Interleave
File size : 549 MiB
Duration : 53mn 54s
Overall bit rate : 1 425 Kbps
Video
ID : 0
Format : MPEG-4 Visual
Format profile : Advanced [email protected]
Format settings, BVOP : 2
Format settings, QPel : No
Format settings, GMC : No warppoints
Format settings, Matrix : Default (H.263)
Codec ID : XVID
Codec ID/Hint : XviD
Duration : 53mn 54s
Bit rate : 1 300 Kbps
Width : 512 pixels
Height : 384 pixels
Display aspect ratio : 4:3
Frame rate : 25.000 fps
Color space : YUV
Chroma subsampling : 4:2:0
Bit depth : 8 bits
Scan type : Progressive
Compression mode : Lossy
Bits/(Pixel*Frame) : 0.264
Stream size : 501 MiB (91%)
Writing library : XviD 1.2.1 (UTC 2008-12-04)
Audio
ID : 1
Format : MPEG Audio
Format version : Version 1
Format profile : Layer 3
Codec ID : 55
Codec ID/Hint : MP3
Duration : 53mn 54s
Source duration : 53mn 54s
Bit rate mode : Constant
Bit rate : 112 Kbps
Channel(s) : 2 channels
Sampling rate : 48.0 KHz
Compression mode : Lossy
Stream size : 43.2 MiB (8%)
Alignment : Split accross interleaves
Interleave, duration : 24 ms (0.60 video frame)

Создавать темы 22-Июл-2012 09:36

[Профиль]  [ЛС] 

Vovo4ka

Стаж: 6 лет 2 месяца

Сообщений: 160

Симпатии: 11

Супер. Спасибо.

Создавать темы 22-Июл-2012 09:39

[Профиль]  [ЛС] 

NodirAgenT

Стаж: 6 лет 5 месяцев

Сообщений: 204

По Идее Должен был Выиграть Крис Джерико Но Случайным Образом Победил Джон Сина и Я Рад что 619 ВернулсЯ

_________________
Подпись отключена за нарушение правил форума

Создавать темы 22-Июл-2012 17:54

[Профиль]  [ЛС] 

Kroys

Стаж: 5 лет 11 месяцев

Сообщений: 187

Симпатии: 1

а я билн )) сморел Андера против Андера на Ютубе )))) ну это было месяца 2-3 назад))

Создавать темы 24-Июл-2012 22:47

[Профиль]  [ЛС] 

AligarH

Стаж: 5 лет 8 месяцев

Сообщений: 31

Дайте раздача
http://img.tas-ix.net/images/2013/e76e357a1a441f96d890e1be21442ec3.png

Создавать темы 03-Ноя-2012 18:31

[Профиль]  [ЛС] 
Показать сообщения:    
Ответить на тему

Текущее время: 21-Сен 22:35

Часовой пояс: UTC + 5



Вы не можете начинать темы
Вы не можете отвечать на сообщения
Вы не можете редактировать свои сообщения
Вы не можете удалять свои сообщения
Вы не можете голосовать в опросах
Вы не можете прикреплять файлы к сообщениям
Вы не можете скачивать файлы