WWE Friday Night Smackdown 2012/07/20 [2012 г., Реслинг, HDTV]

Ответить на тему
 

Спартанец ®

Стаж: 5 лет 6 месяцев

Сообщений: 361

WWE Friday Night Smackdown 2012/07/20
Год выпуска: 2012
Вид спорта: Реслинг
Участники: Звезды WWE
Продолжительность: 01.17.17
Комментарий: Профессиональный (многоголосый, закадровый)
Язык комментариев: Русский
Описание: Еженедельный выпуск пятничного Smackdown. Выпуск от 20-го июля 2012 года
Качество: HDTV
Формат: Mр4
Видео кодек: x264/AVC
Аудио кодек: AAC
Видео: MPEG4, Video, (H264), 720x406, 29.97fps, 1 424 Kbps
Аудио: AAC, 44100Hz, stereo, 1411kbps, 128 Kbps

Кард

Hunico, Camacho and The Prime Time Players (O'Neil and Young) vs. Epico, Primo, R Truth and Kofi Kingston
Zack Ryder vs. Damien Sandow
Daniel Bryan vs. Kane
Heath Slater vs. A WWE Legend
Sheamus and Rey Mysterio vs. Alberto Del Rio and Dolph Ziggler

Скриншоты



МедиаИнфо

General
Format : MPEG-4
Format profile : Base Media
Codec ID : isom
File size : 860 MiB
Duration : 1h 17mn
Overall bit rate mode : Variable
Overall bit rate : 1 556 Kbps
Encoded date : UTC 2012-07-20 11:10:59
Tagged date : UTC 2012-07-20 11:10:59
Writing application : Yamb 2.1.0.0 [http://yamb.unite-video.com]
Video
ID : 1
Format : AVC
Format/Info : Advanced Video Codec
Format profile : [email protected]
Format settings, CABAC : Yes
Format settings, ReFrames : 5 frames
Codec ID : avc1
Codec ID/Info : Advanced Video Coding
Duration : 1h 17mn
Bit rate : 1 424 Kbps
Maximum bit rate : 8 932 Kbps
Width : 720 pixels
Height : 406 pixels
Display aspect ratio : 16:9
Frame rate mode : Constant
Frame rate : 29.970 fps
Color space : YUV
Chroma subsampling : 4:2:0
Bit depth : 8 bits
Scan type : Progressive
Bits/(Pixel*Frame) : 0.163
Stream size : 787 MiB (91%)
Writing library : x264 core 125 r2200 999b753
Encoding settings : cabac=1 / ref=5 / deblock=1:0:0 / analyse=0x3:0x113 / me=umh / subme=8 / psy=1 / psy_rd=1.00:0.00 / mixed_ref=1 / me_range=16 / chroma_me=1 / trellis=1 / 8x8dct=1 / cqm=0 / deadzone=21,11 / fast_pskip=1 / chroma_qp_offset=-2 / threads=12 / lookahead_threads=2 / sliced_threads=0 / nr=0 / decimate=1 / interlaced=0 / bluray_compat=0 / constrained_intra=0 / bframes=3 / b_pyramid=2 / b_adapt=2 / b_bias=0 / direct=3 / weightb=1 / open_gop=0 / weightp=2 / keyint=250 / keyint_min=25 / scenecut=40 / intra_refresh=0 / rc_lookahead=50 / rc=crf / mbtree=1 / crf=24.0 / qcomp=0.60 / qpmin=0 / qpmax=69 / qpstep=4 / ip_ratio=1.40 / aq=1:1.00
Encoded date : UTC 2012-07-20 05:43:48
Tagged date : UTC 2012-07-20 11:13:16
Matrix coefficients : BT.709-5, BT.1361, IEC 61966-2-4 709, SMPTE RP177
Audio
ID : 2
Format : AAC
Format/Info : Advanced Audio Codec
Format profile : LC
Codec ID : 40
Duration : 1h 17mn
Bit rate mode : Variable
Bit rate : 128 Kbps
Maximum bit rate : 156 Kbps
Channel(s) : 2 channels
Channel positions : Front: L R
Sampling rate : 44.1 KHz
Compression mode : Lossy
Stream size : 70.7 MiB (8%)
Encoded date : UTC 2012-07-20 11:12:58
Tagged date : UTC 2012-07-20 11:13:16

Создавать темы 24-Июл-2012 10:07

[Профиль]  [ЛС] 

nikita

Стаж: 6 лет 10 месяцев

Сообщений: 82

Симпатии: 4

спс Спартанец.

Создавать темы 24-Июл-2012 10:24

[Профиль]  [ЛС] 

NodirAgenT

Стаж: 6 лет 4 месяца

Сообщений: 204

ОСТОРОЖНО! СПОЙЛЕР!!

Шоу открыли DX! Билли Ганн, Дорожный Пес, Икс-Пак, Игрок и Шон Майклз. Их прервал Деймиен Сендоу, получивший "Икс-Марк".
1. Рей Мистерио, Син Кара и Шеймус победили Дольфа Зигглера, Криса Джерико и Альберто Дель Рио
2. Бродус Клей победил Джека Сваггера. В углу Бродуса стоял Дьюд Лав.
Свадьба Эй Джей и Дениэла Брайана (под руководством Слика) была прервана... короче, Эй Джей новый ГМ RAW ...
Рок заявил, что встретится с чемпионом WWE в бою за титул на Royal Rumble 2013! Дениэл Брайан получил "Рок Боттом".
3. Миз победил Кристиана и стал новым интерконтинентальным чемпионом.
Брок Леснар и Пол Хеймен согласились на матч Игрока и Брока на SummerSlam 2012. ПрисутствовалаСтефани МакМен.
4. Лита победила Хита Слейтера в поединке без ДК, без каунт-аутов. Ей помогла целая куча легенд, которым ранее проигрывал Слейтер. Также были
Симмонс и ДжиБиЭл.
5. Гробовщик и Кейн очистили ринг от Дрю МакИнтайра, Джиндера Махала, Камачо, Хунико, Тайлера Рекса и Курта Хоукинса. Хоукинс и Хунико получили по "ЧокСлему" и "ТомбСтоуну".
6. Джон Сина победил СМ Панка. Победа после вмешательства Биг Шоу, так что ДК. Сина стал первым, кто не смог закешить чемодан. После боя Биг продолжил избивать Джона, но тому на помощь выбежал Рок, который отхватил "ГТС" от Панка. ХИЛЛ-ТЕРН, господа.
Список Победителей Raw 1000 Видео скачал бы но не могу трафик 0000 Буду со следуещего месяца грузить

_________________
Подпись отключена за нарушение правил форума

Создавать темы 24-Июл-2012 11:00

[Профиль]  [ЛС] 

LiX

Стаж: 6 лет 2 месяца

Сообщений: 254

Симпатии: 6

Где был Рэй когда избивали Шеймуса!
Спартанец вы наверное уже качаете 1000 Raw?

Создавать темы 24-Июл-2012 13:09

[Профиль]  [ЛС] 

POCOMAXA

Стаж: 6 лет 4 месяца

Сообщений: 9

Ahy. Ahy. Ahy

Создавать темы 24-Июл-2012 13:18

[Профиль]  [ЛС] 

Спартанец ®

Стаж: 5 лет 6 месяцев

Сообщений: 361

Буду качать Ликс. Жду русскую версию.
Мля Россомаха, ты что ли ?

Создавать темы 24-Июл-2012 16:45

[Профиль]  [ЛС] 

Kroys

Стаж: 5 лет 10 месяцев

Сообщений: 187

Симпатии: 1

Блин столько интересного пропускаю :(( ну нечего следущий месяц буду качать ..... :) очень посмореть хочу

Создавать темы 24-Июл-2012 22:46

[Профиль]  [ЛС] 
Показать сообщения:    
Ответить на тему

Текущее время: 22-Авг 00:50

Часовой пояс: UTC + 5



Вы не можете начинать темы
Вы не можете отвечать на сообщения
Вы не можете редактировать свои сообщения
Вы не можете удалять свои сообщения
Вы не можете голосовать в опросах
Вы не можете прикреплять файлы к сообщениям
Вы не можете скачивать файлы