СМСуальность / Textuality (Уоррен П. Сонода) [2011 г., мелодрама, комедия, ... DVDRip]

Ответить на тему
 

jaska-3d ®

Стаж: 5 лет 9 месяцев

Сообщений: 250

Симпатии: 25

СМСуальность / Textuality-
Год выпуска: 2011
Страна: Канада
Жанр: мелодрама, комедия, ...
Продолжительность: 01:30:19
Перевод: Профессиональный (многоголосый)
Режиссер: Уоррен П. Сонода
Сценарий: Лайам Кард
Продюсер: Марк Риго, Майкл Бэйкер, Марко Таларико, ...
Оператор: Джереми Беннинг
Композитор: Крэйг МакКоннелл
Художник: Диана Аббатанджело, Лаура Монтгомери, Винсент Харпер, ...
Монтаж: Аден Барадори, Уоррен П. Сонода
В ролях: Джейсон Льюис (Jason Lewis), Карли Поуп (Carly Pope), Эрик МакКормак (Eric McCormack), Лайам Кард (Liam Card), Кристен Холден-Рид (Kristen Holden-Ried), Кристен Хагер (Kristen Hager), Марселло Кабезас (Marcello Cabezas), Supinder Wraich, Shane Nicely, Холли Дигнард (Holly Dignard), Дэнни Уэллс (Danny Wells), Анна Сайзон (Anna Cyzon), Николас Роуз (Nicholas Rose), Марианти Питсадиотис (Marianthi Pitsadiotis), Рэнди Томас (Randy Thomas), Джим Аннан (Jim Annan), Рени Перси (Renee Percy), Аластер Лав (Alastair Love), Келда Каммингс (Kelda Cummings), Dave Hehn
Описание: Пора уже бросить, наконец, писать СМСки, сидеть в этом вашем Фейсбуке, и заняться любовью в реальной жизни! Герои фильма прошли долгий путь от шлепания по клавишам и обмена фотографиями до реальной встречи, но они настолько отвыкли от реального общения, что наладить любовь им трудно.-Премьера (мир): 22 апреля 2011, ...
Рейтинг MPAA: Лицам до 17 лет обязательно присутствие взрослого- -Качество: DVDRip
Формат: AVI
Видео кодек: XviD
Аудио кодеk: AC3
Видео: 720x384 (1.875:1), 25.000 fps, XviD, 1 968 Kbps
Аудио: Аудио #1: AC3, 192 Kbps, 48.0 KHz, 2 ch

МедиаИнфо

General
Complete name                    : SMSualnost.2011.P.DVDRip.IRONCLUB.avi
Format                           : AVI
Format/Info                      : Audio Video Interleave
File size                        : 1.37 GiB
Duration                         : 1h 30mn
Overall bit rate                 : 2 169 Kbps
Movie name                       : Textuality.2011.P.DVDRip.IRONCLUB
Director                         : IRONCLUB
Writing application              : VirtualDubMod 1.5.10.2 (build 2540/release)
Writing library                  : VirtualDubMod build 2540/release
Original source form/Name        : Movie
Copyright                        : ironclub.tv
Video
ID                               : 0
Format                           : MPEG-4 Visual
Format profile                   : Advanced [email protected]
Format settings, BVOP            : Yes
Format settings, QPel            : No
Format settings, GMC             : No warppoints
Format settings, Matrix          : Custom
Codec ID                         : XVID
Codec ID/Hint                    : XviD
Duration                         : 1h 30mn
Bit rate                         : 1 968 Kbps
Width                            : 720 pixels
Height                           : 384 pixels
Display aspect ratio             : 1.875
Frame rate                       : 25.000 fps
Color space                      : YUV
Chroma subsampling               : 4:2:0
Bit depth                        : 8 bits
Scan type                        : Progressive
Bits/(Pixel*Frame)               : 0.285
Stream size                      : 1.24 GiB (91%)
Writing library                  : XviD 1.2.1 (UTC 2008-12-04)
Audio
ID                               : 1
Format                           : AC-3
Format/Info                      : Audio Coding 3
Mode extension                   : CM (complete main)
Codec ID                         : 2000
Duration                         : 1h 30mn
Bit rate mode                    : Constant
Bit rate                         : 192 Kbps
Channel(s)                       : 2 channels
Channel positions                : Front: L R
Sampling rate                    : 48.0 KHz
Bit depth                        : 16 bits
Stream size                      : 124 MiB (9%)
Alignment                        : Split accross interleaves
Interleave, duration             : 40 ms (1.00 video frame)
Interleave, preload duration     : 500 ms

Скриншоты






Последний раз редактировалось: jaska-3d (2012-07-27 08:04), всего редактировалось 3 раз(а)

Создавать темы 25-Июл-2012 09:39

[Профиль]  [ЛС] 

jaska-3d ®

Стаж: 5 лет 9 месяцев

Сообщений: 250

Симпатии: 25

Ставим + в репу ! Мои релизы


Последний раз редактировалось: jaska-3d (2012-08-22 22:30), всего редактировалось 2 раз(а)

Создавать темы 25-Июл-2012 09:54

[Профиль]  [ЛС] 

shahz

Стаж: 5 лет 7 месяцев

Сообщений: 192

Симпатии: 9

За 3 дня скачан 89 раз (!) и ни одного коментария, как вам фильм ???
Судя по описанию действие происходит в наше время. Я посоветовал бы режиссёрам отечественного кинопрома снять фильм «10 дней без яиц» ag

Создавать темы 28-Июл-2012 13:06

[Профиль]  [ЛС] 
Показать сообщения:    
Ответить на тему

Текущее время: 26-Сен 10:31

Часовой пояс: UTC + 5



Вы не можете начинать темы
Вы не можете отвечать на сообщения
Вы не можете редактировать свои сообщения
Вы не можете удалять свои сообщения
Вы не можете голосовать в опросах
Вы не можете прикреплять файлы к сообщениям
Вы не можете скачивать файлы