WWE Monday Night Raw 1000th Episode [2012 г., Реслинг, HDTV]

Страницы :  1, 2  След.

Ответить на тему
 

Спартанец ®

Стаж: 5 лет 6 месяцев

Сообщений: 361

- Год выпуска: 2012
Вид спорта: Реслинг
Участники: Звезды WWE
Продолжительность: 02.26.35
Комментарий: Профессиональный (многоголосый, закадровый)
Язык комментариев: Русский
Описание: Еженедельный выпуск Monday Night Raw. 1000-ый эпизод шоу. Выпуск от 23-го июля 2012 года
Качество: HDTV
Формат: Mр4
Видео кодек: х263/AVC
Аудио кодек: AAC
Видео: MPEG4, Video, (H264), 704x400, 29.97fps,1 332 Kbps
Аудио: AAC, 44100Hz, stereo, 1411kbps, 128 Kbps

Кард

Sheamus and Rey Mysterio and Sin Cara vs. Alberto Del Rio and Dolph Ziggler and Chris Jericho
Brodus Clay vs. Jack Swagger
Heath Slater vs. ?
CM Punk vs. John Cena - WWE Championship Match

Скриншоты



МедиаИнфо

General
Format : MPEG-4
Format profile : Base Media
Codec ID : isom
File size : 1.57 GiB
Duration : 2h 26mn
Overall bit rate mode : Variable
Overall bit rate : 1 529 Kbps
Encoded date : UTC 2012-07-23 16:04:55
Tagged date : UTC 2012-07-23 16:04:55
Writing application : Yamb 2.1.0.0 [http://yamb.unite-video.com]
Video
ID : 1
Format : AVC
Format/Info : Advanced Video Codec
Format profile : [email protected]
Format settings, CABAC : Yes
Format settings, ReFrames : 2 frames
Codec ID : avc1
Codec ID/Info : Advanced Video Coding
Duration : 2h 26mn
Source duration : 2h 26mn
Bit rate : 1 332 Kbps
Nominal bit rate : 1 400 Kbps
Maximum bit rate : 4 568 Kbps
Width : 704 pixels
Height : 400 pixels
Display aspect ratio : 16:9
Frame rate mode : Constant
Frame rate : 29.970 fps
Color space : YUV
Chroma subsampling : 4:2:0
Bit depth : 8 bits
Scan type : Progressive
Bits/(Pixel*Frame) : 0.158
Stream size : 1.36 GiB (87%)
Source stream size : 1.43 GiB
Writing library : x264 core 120 r2120 0c7dab9
Encoding settings : cabac=1 / ref=2 / deblock=0:0:0 / analyse=0x3:0x113 / me=dia / subme=7 / psy=1 / psy_rd=1.00:0.00 / mixed_ref=0 / me_range=16 / chroma_me=0 / trellis=1 / 8x8dct=1 / cqm=0 / deadzone=21,11 / fast_pskip=1 / chroma_qp_offset=-2 / threads=6 / sliced_threads=0 / nr=0 / decimate=0 / interlaced=0 / bluray_compat=0 / constrained_intra=0 / bframes=2 / b_pyramid=0 / b_adapt=0 / b_bias=0 / direct=0 / weightb=0 / open_gop=0 / weightp=0 / keyint=500 / keyint_min=100 / scenecut=40 / intra_refresh=0 / rc=abr / mbtree=0 / bitrate=1400 / ratetol=1.0 / qcomp=0.60 / qpmin=0 / qpmax=69 / qpstep=4 / ip_ratio=1.40 / pb_ratio=1.30 / aq=1:1.00
Tagged date : UTC 2012-07-23 16:07:37
Audio
ID : 2
Format : AAC
Format/Info : Advanced Audio Codec
Format profile : LC
Codec ID : 40
Duration : 2h 26mn
Bit rate mode : Variable
Bit rate : 128 Kbps
Maximum bit rate : 171 Kbps
Channel(s) : 2 channels
Channel positions : Front: L R
Sampling rate : 44.1 KHz
Compression mode : Lossy
Stream size : 134 MiB (8%)
Encoded date : UTC 2012-07-23 16:07:20
Tagged date : UTC 2012-07-23 16:07:37

Создавать темы 25-Июл-2012 10:46

[Профиль]  [ЛС] 

McFLY

Стаж: 5 лет 5 месяцев

Сообщений: 658

Симпатии: 22

УРА!!!! Ну вот и дожили до 1000-го RAW. А тут уже и саммерслэм не за горами :)
Спартанец, спасибо тебе большое! Ещё бы раздача шла активнее , но я так думаю всё равно буду пару дней лить , тут уж ничего не поделаешь :)
И вообще заметили какая это вещь заразная :) пару раз посмотрел :) и всё - уже на крючке :)

Создавать темы 25-Июл-2012 12:30

[Профиль]  [ЛС] 

Ala

Стаж: 6 лет 4 месяца

Сообщений: 45

ребята у кого соундтреки есть? залейте пож.

Создавать темы 25-Июл-2012 14:07

[Профиль]  [ЛС] 

NodirAgenT

Стаж: 6 лет 4 месяца

Сообщений: 204

Бои не все поисанны вроде Ну дда ладно главное позырить И моно репут поднять ?

_________________
Подпись отключена за нарушение правил форума

Создавать темы 25-Июл-2012 14:25

[Профиль]  [ЛС] 

NodirAgenT

Стаж: 6 лет 4 месяца

Сообщений: 204

По закону Money in the Bank контракта, если во время кеша кейса матч закончился дисквалификацией, то кейс возвращается к хозяину.
Но когда Vince McMahon принёс John Cena-е его кейс, Cena сказал:........."Нет, я проиграл".

_________________
Подпись отключена за нарушение правил форума

Создавать темы 25-Июл-2012 14:26

[Профиль]  [ЛС] 

McFLY

Стаж: 5 лет 5 месяцев

Сообщений: 658

Симпатии: 22

NodirAgenT, Репу я тебе подниму. Думаю тебе уже говорили, повторю ещё раз. Пиши всё что хочешь под спойлер, а лучше на своём сайте , но больше не стоит злить людей и писать то чего многие ещё не смотрели это очень раздражает. Это ведь спорт. Кому будет интересно смотреть после твоих писюлек. А ты опять за старое, сколько можно? Надеюсь , я разъяснил всё доходчиво. Одно предупреждение тебе уже выдали. Знай что 3-е это автоматический бан, так что задумайся.
Ну а сайт у тебя и правда отличный - молодец.

Создавать темы 25-Июл-2012 16:02

[Профиль]  [ЛС] 

McFLY

Стаж: 5 лет 5 месяцев

Сообщений: 658

Симпатии: 22

По закону Money in the Bank контракта, если во время кеша кейса матч закончился дисквалификацией, то кейс возвращается к хозяину.
Вот лично для меня - интрига потеряна. Спасибо большое, NodirAgenT.

Создавать темы 25-Июл-2012 16:17

[Профиль]  [ЛС] 

NodirAgenT

Стаж: 6 лет 4 месяца

Сообщений: 204

Прошу прощения Больше не повторится а еси и будет то будет в виде такого реззультаты победителей и

_________________
Подпись отключена за нарушение правил форума

Создавать темы 25-Июл-2012 18:31

[Профиль]  [ЛС] 

Спартанец ®

Стаж: 5 лет 6 месяцев

Сообщений: 361

Не за что парни ))

Создавать темы 25-Июл-2012 21:44

[Профиль]  [ЛС] 

Спартанец ®

Стаж: 5 лет 6 месяцев

Сообщений: 361

Парни, я не виноват. Весь день раздачи "красные".

Создавать темы 25-Июл-2012 21:59

[Профиль]  [ЛС] 

Anicorn

Стаж: 5 лет 1 месяц

Сообщений: 51

Спасибо, заодно и Money in the Bank заспойлерили...
Спартанец, спасибо за оперативность!!!

Создавать темы 25-Июл-2012 22:04

[Профиль]  [ЛС] 

Emil_Safa

Стаж: 5 лет 2 месяца

Сообщений: 102

Спасибо Спартанец я думал будем долго ждать,а получилось как всегда быстро.
Даже с красными закачками закачка идет=)

Создавать темы 25-Июл-2012 22:27

[Профиль]  [ЛС] 

McFLY

Стаж: 5 лет 5 месяцев

Сообщений: 658

Симпатии: 22

Проверил на 5 проигрывателях 2 компах и планшетнике - файл малость битый , хех, а хотелось прямиком в коллекцию!
Спартанец, чтобы там ни было всё равно спасибо за всё, бывает , тут уж любой попасть может!

Создавать темы 26-Июл-2012 21:06

[Профиль]  [ЛС] 

Emil_Safa

Стаж: 5 лет 2 месяца

Сообщений: 102

Так значит можно не качать?именно 1000 выпуск и не рабочий жаль(

Создавать темы 26-Июл-2012 21:21

[Профиль]  [ЛС] 

McFLY

Стаж: 5 лет 5 месяцев

Сообщений: 658

Симпатии: 22

Да как бы смотреть можно , только малость лагает квадратиками иногда , ну и лучше всего смотреть на KMP или DAUM всё остальное отказывается работать :)
Ну а так , лучше уж это чем ничего :)

Создавать темы 26-Июл-2012 21:30

[Профиль]  [ЛС] 
Показать сообщения:    
Ответить на тему

Текущее время: 17-Авг 13:06

Часовой пояс: UTC + 5



Вы не можете начинать темы
Вы не можете отвечать на сообщения
Вы не можете редактировать свои сообщения
Вы не можете удалять свои сообщения
Вы не можете голосовать в опросах
Вы не можете прикреплять файлы к сообщениям
Вы не можете скачивать файлы