[#37] Терминатор-2: Судный день / Terminator-2: Judgment Day (Джеймс Кэмерон / James Cameron) [1991 г., фантастика, боевик, триллер, BDRip]

Страницы :  1, 2  След.

Ответить на тему
 

vadmin ®

Стаж: 6 лет 11 месяцев

Сообщений: 70

Симпатии: 13

--Терминатор-2: Судный день / Terminator-2: Judgment Day[Театральная версия / Theatrical cut]--IMDb: Top 250: #37
--Год выпуска: 1991
Страна: США, Франция
Жанр: фантастика, боевик, триллер
Продолжительность: 02:16:35
Перевод: Профессиональный (двухголосый, закадровый) НТВ / СТС--Режиссер: Джеймс Кэмерон / James Cameron--В ролях: Арнольд Шварценеггер, Линда Хэмилтон, Эдвард Ферлонг, Роберт Патрик, Эрл Боэн, Джо Мортон, С. Эпата Меркерсон, Кастуло Герра, Дэнни Кукси, Дженетт Голдстин--Описание: Война роботов и людей продолжается. Казалось, что человечество обречено на полное уничтожение. Но благодаря своему лидеру Джону Коннору у сопротивления появляется шанс победить. Не имея возможности убить Джона в реальном времени, роботы отправляют в прошлое свою самую совершенную разработку — терминатора-убийцу из жидкого металла, способного принимать любое обличье.
Теперь, чтобы победить в будущем. Юному Джону Коннору надо выжить в настоящем. Его шансы существенно повышаются, когда на помощь приходит перепрограммированный сопротивлением терминатор предыдущего поколения. Оба робота вступают в смертельный бой, от исхода которого зависит судьба человечества.
Качество: BDRip
Формат: AVI
Видео кодек: XviD
Аудио кодек: MP3
Видео: 720x304 (2.37:1), 23.980 fps, XviD build 47 ~1138 kbps avg, 0.22 bit/pixel
Аудио: 48.0 KHz, AC3, 2 channels ~ 192 Kbps

MI

Format                           : AVI
Format/Info                      : Audio Video Interleave
File size                        : 1.28 GiB
Duration                         : 2h 16mn
Overall bit rate                 : 1 339 Kbps
Movie name                       : Terminator_2_by_All_films
Director                         : sergeide
Writing application              : VirtualDubMod 1.5.10.2 (build 2540/release)
Writing library                  : VirtualDubMod build 2540/release
Video
ID                               : 0
Format                           : MPEG-4 Visual
Format profile                   : Advanced [email protected]
Format settings, BVOP            : Yes
Format settings, QPel            : No
Format settings, GMC             : No warppoints
Format settings, Matrix          : Custom
Codec ID                         : XVID
Codec ID/Hint                    : XviD
Duration                         : 2h 16mn
Bit rate                         : 1 138 Kbps
Width                            : 720 pixels
Height                           : 304 pixels
Display aspect ratio             : 2.35:1
Frame rate                       : 23.976 fps
Color space                      : YUV
Chroma subsampling               : 4:2:0
Bit depth                        : 8 bits
Scan type                        : Progressive
Bits/(Pixel*Frame)               : 0.217
Stream size                      : 1.09 GiB (85%)
Writing library                  : XviD 1.2.0.dev47 (UTC 2006-11-01)
Audio
ID                               : 1
Format                           : AC-3
Format/Info                      : Audio Coding 3
Mode extension                   : CM (complete main)
Codec ID                         : 2000
Duration                         : 2h 16mn
Bit rate mode                    : Constant
Bit rate                         : 192 Kbps
Channel(s)                       : 2 channels
Channel positions                : Front: L R
Sampling rate                    : 48.0 KHz
Stream size                      : 188 MiB (14%)
Alignment                        : Split accross interleaves
Interleave, duration             : 42 ms (1.00 video frame)
Interleave, preload duration     : 500 ms

Скриншоты

На скринах и постере есть водяной знак на него не обращайте внимание, оформлял фильм на другом трекере водяные знаки остались от фотохостинга, на фильме нет никаких водяных знаков так что не переживайте:)


Создавать темы 26-Июл-2012 13:51

[Профиль]  [ЛС] 

knyaz31337

Стаж: 6 лет 3 месяца

Сообщений: 396

Симпатии: 20

Народ! Если есть у кого режиссерская версия, выложите, плизззз!

Создавать темы 26-Июл-2012 14:03

[Профиль]  [ЛС] 

alexey.555

Стаж: 5 лет 4 месяца

Сообщений: 137

Симпатии: 22

А чем отличается режиссерская версия от театральной?

Создавать темы 28-Июл-2012 13:41

[Профиль]  [ЛС] 

IQBOT

Стаж: 6 лет 6 месяцев

Сообщений: 449

Симпатии: 81

В этой версии есть сцены, которые не вошли в театральную версию.
Тут есть кадры, которых по ТВ почти никогда не показывали.

Создавать темы 28-Июл-2012 13:48

[Профиль]  [ЛС] 

Tyrael7774

Стаж: 4 года 11 месяцев

Сообщений: 76

Симпатии: 1

Зрелишный Фильм + ! tx

Создавать темы 20-Авг-2012 20:09

[Профиль]  [ЛС] 

Dollermen

Стаж: 6 лет 6 месяцев

Сообщений: 17

Симпатии: 1

vadmin, пожалуйста помоги скачать быстрее

Создавать темы 28-Авг-2012 13:04

[Профиль]  [ЛС] 

vadmin ®

Стаж: 6 лет 11 месяцев

Сообщений: 70

Симпатии: 13

vadmin, пожалуйста помоги скачать быстрее
Извините, помочь ничем не могу. Я не ставлю ограничений на раздачах. Возможно Ваши айпи фильтры меня блокируют. Мне ставить ограничения незачем, за трафик не переживаю, айпи фильтры не использую.

Создавать темы 28-Авг-2012 16:59

[Профиль]  [ЛС] 

shekspir

Стаж: 6 лет 5 месяцев

Сообщений: 21

Симпатии: 7

druzya dayte skorist pojalista

Создавать темы 02-Дек-2012 11:21

[Профиль]  [ЛС] 

абдулбори

Стаж: 4 года 7 месяцев

Сообщений: 27

спассибо за кино, но дайте скорости плис

Создавать темы 31-Дек-2012 08:39

[Профиль]  [ЛС] 

Anakin92

Стаж: 4 года 7 месяцев

Сообщений: 47

Народ встаньте на раздачу плизз))

Создавать темы 04-Май-2013 13:23

[Профиль]  [ЛС] 

Rammstein94

Стаж: 6 лет 4 месяца

Сообщений: 37

дайте качнуть

Создавать темы 08-Июн-2013 22:23

[Профиль]  [ЛС] 

rsoib

Стаж: 6 лет 11 месяцев

Сообщений: 33

давайте скоооооороооооост

Создавать темы 19-Янв-2014 03:14

[Профиль]  [ЛС] 

baltasar

Стаж: 3 года 7 месяцев

Сообщений: 13

Симпатии: 2

у меня есть режиссерская версия и я б поделился но не получается выложить сюда фильм. подпись: Чайник))))

Создавать темы 12-Фев-2014 22:52

[Профиль]  [ЛС] 

outoforder

Стаж: 4 года 9 месяцев

Сообщений: 812

Симпатии: 172

у меня есть режиссерская версия и я б поделился но не получается выложить сюда фильм. подпись: Чайник))))
попросите более прошаренных оформить, все так делают

Создавать темы 14-Фев-2014 08:52

[Профиль]  [ЛС] 

farid0888

Стаж: 5 лет 3 месяца

Сообщений: 232

Симпатии: 49

Ребята прибавьте скорость пожалуйста

Создавать темы 15-Апр-2014 14:05

[Профиль]  [ЛС] 
Показать сообщения:    
Ответить на тему

Текущее время: 19-Авг 08:47

Часовой пояс: UTC + 5



Вы не можете начинать темы
Вы не можете отвечать на сообщения
Вы не можете редактировать свои сообщения
Вы не можете удалять свои сообщения
Вы не можете голосовать в опросах
Вы не можете прикреплять файлы к сообщениям
Вы не можете скачивать файлы