[#47] Таксист / Taxi Driver (Мартин Скорсезе / Martin Scorsese) [1976 г., Триллер, драма, HDRip] MVO (ОРТ)

Ответить на тему
 

vadmin ®

Стаж: 7 лет 2 месяца

Сообщений: 70

Симпатии: 13

--Таксист / Taxi Driver--IMDb: Top 250: #47-- Год выпуска: 1976
Перевод: Профессиональный (многоголосый, закадровый) | ОРТ
Страна: США
Жанр: Триллер, драма
Продолжительность: 01:53:48--Режиссер: Мартин Скорсезе / Martin Scorsese--В ролях: Роберт Де Ниро, Сибилл Шепард, Джоди Фостер, Харви Кайтел, Питер Бойл, Леонард Харрис, Альберт Брукс, Дайэнн Эбботт, Фрэнк Эду, Джино Ардито, Виктор Арго, Гарт Эйвери, Гарри Кон, Коппер Каннингэм, Бренда Диксон, Гарри Фишлер, Нат Грант, Ричард Хиггс, Бо Кайсер, Виктор Маньотта, Норман Мэтлок, Билл Минкин, Мюррей Мостон, Гарри Нортап, Джин Пальма, Стивен Честер Принц, Мартин Скорсезе, Николас Шилдс, Ральф С. Синглтон, Джо Спинелл, Мария Тернер, Джозеф Бергманн, Робин Атт, Уильям Донован--Описание: Тусклый свет слепых фонарей, скелеты фабричных труб, задыхающихся в собственном дыму, Вавилонские башни небоскребов. Все это - ад Нового времени, Нью-Йорк. Ветеран Вьетнамской войны Трэвис Бикл ведет свое одинокое такси по бесконечным улицам ночного города, и перед ним разворачивается мрачная панорама человеческих грехов. Как ветхозаветный пророк, он надеется, что однажды небеса пошлют на землю спасительный дождь, который очистит Нью-Йорк от вековой грязи. А когда умирает надежда, остается только ненависть. Огненный ливень обрушится на головы грешников. Таксист позаботится об этом. Завязавшееся знакомство с двенадцатилетней проституткой приводит его к тому, что полный решимости покончить с пороком и насилием таксист устраивает кровавую баню тем, кто наживается на торговле "живым товаром". После этого "выпуска пара", когда пресса сделала из него героя, он успокаивается и обретает способность жить дальше.--Качество: HDRip
Формат: AVI
Видео кодек: XviD
Аудио кодек: MP3
Видео: 624x336 (1.86:1), 23.976 fps, XviD build 50 ~776 kbps avg, 0.15 bit/pixel
Аудио: 448 kHz, MPEG Layer 3, 2 ch, ~128.00 kbps avg--

MI

Format                           : AVI
Format/Info                      : Audio Video Interleave
File size                        : 744 MiB
Duration                         : 1h 53mn
Overall bit rate                 : 914 Kbps
Writing application              : VirtualDubMod 1.5.10.2 (build 2540/release)
Writing library                  : VirtualDubMod build 2540/release
Video
ID                               : 0
Format                           : MPEG-4 Visual
Format profile                   : Advanced [email protected]
Format settings, BVOP            : Yes
Format settings, QPel            : No
Format settings, GMC             : No warppoints
Format settings, Matrix          : Custom
Codec ID                         : XVID
Codec ID/Hint                    : XviD
Duration                         : 1h 53mn
Bit rate                         : 777 Kbps
Width                            : 624 pixels
Height                           : 336 pixels
Display aspect ratio             : 1.857
Frame rate                       : 23.976 fps
Color space                      : YUV
Chroma subsampling               : 4:2:0
Bit depth                        : 8 bits
Scan type                        : Progressive
Bits/(Pixel*Frame)               : 0.154
Stream size                      : 632 MiB (85%)
Writing library                  : XviD 1.2.1 (UTC 2008-12-04)
Audio
ID                               : 1
Format                           : MPEG Audio
Format version                   : Version 1
Format profile                   : Layer 3
Codec ID                         : 55
Codec ID/Hint                    : MP3
Duration                         : 1h 53mn
Bit rate mode                    : Constant
Bit rate                         : 128 Kbps
Channel(s)                       : 2 channels
Sampling rate                    : 48.0 KHz
Stream size                      : 104 MiB (14%)
Alignment                        : Aligned on interleaves
Interleave, duration             : 42 ms (1.00 video frame)
Interleave, preload duration     : 504 ms
Writing library                  : LAME3.98r
Encoding settings                : -m s -V 4 -q 2 -lowpass 17 -b 128

Скриншоты


Создавать темы 26-Июл-2012 14:10

[Профиль]  [ЛС] 

Tyrael7774

Стаж: 5 лет 2 месяца

Сообщений: 76

Симпатии: 1

Хмм...интересный фильм)

Создавать темы 20-Авг-2012 21:12

[Профиль]  [ЛС] 

239tuit

Стаж: 5 лет 1 месяц

Сообщений: 75

крутяк

Создавать темы 25-Авг-2012 21:49

[Профиль]  [ЛС] 

alymbetoff

Стаж: 6 лет 8 месяцев

Сообщений: 26

Симпатии: 1

может скорости добавим?

Создавать темы 26-Авг-2012 10:10

[Профиль]  [ЛС] 

one-two

Стаж: 7 лет 3 месяца

Сообщений: 24

не пойму почему не качает? 3 сида есть

Создавать темы 30-Май-2013 20:42

[Профиль]  [ЛС] 

Сварог

Стаж: 5 лет 1 месяц

Сообщений: 77

Симпатии: 4

Пожалуйста выложите английскую дорожку к фильму. Срочно.

Создавать темы 18-Авг-2013 14:09

[Профиль]  [ЛС] 

_Top_

Стаж: 5 лет 4 месяца

Сообщений: 6

Симпатии: 1

Скучнее фильма я не встречал....

Создавать темы 18-Авг-2013 16:01

[Профиль]  [ЛС] 

razor2011

Стаж: 5 лет 1 месяц

Сообщений: 227

Симпатии: 37

ШЕДЕВР

Создавать темы 18-Авг-2013 22:26

[Профиль]  [ЛС] 

Сварог

Стаж: 5 лет 1 месяц

Сообщений: 77

Симпатии: 4

Скучнее фильма я не встречал....
Фильм классный, особенно поднимает вопрос о очищение улиц от "грязи".

Создавать темы 22-Авг-2013 15:36

[Профиль]  [ЛС] 

Axel F

Стаж: 4 года 8 месяцев

Сообщений: 7

дайте скорость пож.

Создавать темы 12-Апр-2014 17:01

[Профиль]  [ЛС] 

kavboy

Стаж: 4 года 5 месяцев

Сообщений: 4

yordam qililar iloji bo'sa

Создавать темы 20-Ноя-2016 12:56

[Профиль]  [ЛС] 

jonyshok

Стаж: 1 год 2 месяца

Сообщений: 3

помогите докачать плиз

Создавать темы 27-Ноя-2016 23:55

[Профиль]  [ЛС] 
Показать сообщения:    
Ответить на тему

Текущее время: 22-Окт 16:40

Часовой пояс: UTC + 5



Вы не можете начинать темы
Вы не можете отвечать на сообщения
Вы не можете редактировать свои сообщения
Вы не можете удалять свои сообщения
Вы не можете голосовать в опросах
Вы не можете прикреплять файлы к сообщениям
Вы не можете скачивать файлы