Рапунцель: Счастлива навсегда / Tangled Ever Afte (Нэйтан Грено, Байрон Ховард / Nathan Greno, Byron Howard) [2012 г., Мультфильм, Комедия, Короткометражка, Семейный, BDRip(720p)]

Ответить на тему
 

jokerbek ®

Стаж: 6 лет 8 месяцев

Сообщений: 184

Симпатии: 9

Рапунцель: Счастлива навсегда / Tangled Ever Afte --Год выхода: 2012
Жанр: Мультфильм, короткометражка, комедия, приключения
Режиссер: Нэйтан Грено
В ролях: Закари Левай (Zachary Levi), Мэнди Мур (Mandy Moore), Марк Аллан Стюарт (Mark Allan Stewart)
Страна: США
Продолжительность: 00:06:26
Перевод: Дублированное[Лицензия]--Описание:В волшебном королевстве грандиозный праздник: Рапунцель идет под венец! Все затаив дыхание ждут торжественной минуты. Но свадебная церемония грозит обернуться катастрофой: конь Максимус и хамелеон Паскаль теряют подвенечные кольца. У них остается всего несколько минут, чтобы найти пропажу.--Формат: MKV (H.264)
Качество: BDRip 720p
Видео: 4931 kb/s, MPEG4 Video (H264) 1280x720 29.97fps
Аудио: Russian / English: AC3, 192 kb/s, Dolby 48000Hz (2 ch)
Субтитры: Русские (на надписи)

MI

General
Unique ID                        : 177520932670647865101481758728157019397 (0x858D49BA46A348BC8BDF66A31F523D05)
Complete name                    : D:\Филмы\Downlad\Rapuncel.Dolgo.i.Schastlivo.2012.D.BDRip.720p_Epidemz.Net.mkv
Format                           : Matroska
File size                        : 227 MiB
Duration                         : 6mn 26s
Overall bit rate                 : 4 928 Kbps
Encoded date                     : UTC 2012-04-01 15:44:07
Writing application              : mkvmerge v4.6.0 ('Still Crazy After All These Years') сборка от Mar 10 2011 02:50:32
Writing library                  : libebml v1.2.0 + libmatroska v1.1.0
Video
ID                               : 1
Format                           : AVC
Format/Info                      : Advanced Video Codec
Format profile                   : [email protected]
Format settings, CABAC           : Yes
Format settings, ReFrames        : 4 frames
Muxing mode                      : Header stripping
Codec ID                         : V_MPEG4/ISO/AVC
Duration                         : 6mn 26s
Bit rate                         : 4 446 Kbps
Width                            : 1 280 pixels
Height                           : 720 pixels
Display aspect ratio             : 16:9
Frame rate                       : 29.970 fps
Color space                      : YUV
Chroma subsampling               : 4:2:0
Bit depth                        : 8 bits
Scan type                        : Progressive
Bits/(Pixel*Frame)               : 0.161
Stream size                      : 205 MiB (90%)
Writing library                  : x264 core 120 r2164 da19765
Encoding settings                : cabac=1 / ref=3 / deblock=1:0:0 / analyse=0x3:0x113 / me=hex / subme=7 / psy=1 / psy_rd=1.00:0.00 / mixed_ref=1 / me_range=16 / chroma_me=1 / trellis=1 / 8x8dct=1 / cqm=0 / deadzone=21,11 / fast_pskip=1 / chroma_qp_offset=-2 / threads=3 / sliced_threads=0 / nr=0 / decimate=1 / interlaced=0 / bluray_compat=0 / constrained_intra=0 / bframes=3 / b_pyramid=2 / b_adapt=1 / b_bias=0 / direct=1 / weightb=1 / open_gop=0 / weightp=2 / keyint=300 / keyint_min=29 / scenecut=40 / intra_refresh=0 / rc_lookahead=40 / rc=crf / mbtree=1 / crf=17.0 / qcomp=0.60 / qpmin=0 / qpmax=69 / qpstep=4 / ip_ratio=1.40 / aq=1:1.00
Language                         : English
Audio #1
ID                               : 2
Format                           : AC-3
Format/Info                      : Audio Coding 3
Mode extension                   : CM (complete main)
Muxing mode                      : Header stripping
Codec ID                         : A_AC3
Duration                         : 6mn 26s
Bit rate mode                    : Constant
Bit rate                         : 192 Kbps
Channel(s)                       : 2 channels
Channel positions                : Front: L R
Sampling rate                    : 48.0 KHz
Bit depth                        : 16 bits
Compression mode                 : Lossy
Stream size                      : 8.85 MiB (4%)
Title                            : Дублированный
Language                         : Russian
Audio #2
ID                               : 3
Format                           : AC-3
Format/Info                      : Audio Coding 3
Mode extension                   : CM (complete main)
Muxing mode                      : Header stripping
Codec ID                         : A_AC3
Duration                         : 6mn 26s
Bit rate mode                    : Constant
Bit rate                         : 192 Kbps
Channel(s)                       : 2 channels
Channel positions                : Front: L R
Sampling rate                    : 48.0 KHz
Bit depth                        : 16 bits
Compression mode                 : Lossy
Stream size                      : 8.85 MiB (4%)
Title                            : English
Language                         : English
Text
ID                               : 4
Format                           : ASS
Codec ID                         : S_TEXT/ASS
Codec ID/Info                    : Advanced Sub Station Alpha
Compression mode                 : Lossless
Title                            : Nadpisi
Language                         : Russian

Скриншоты


Создавать темы 26-Июл-2012 21:44

[Профиль]  [ЛС] 

ibragimof

Стаж: 6 лет 4 месяца

Сообщений: 253

Симпатии: 48

она волосы подстригла что ли

Создавать темы 26-Июл-2012 22:11

[Профиль]  [ЛС] 

jokerbek ®

Стаж: 6 лет 8 месяцев

Сообщений: 184

Симпатии: 9

да)

Создавать темы 26-Июл-2012 22:22

[Профиль]  [ЛС] 

Tony R.

Стаж: 8 лет 7 месяцев

Сообщений: 132

Симпатии: 20

Ещё в оригинальном мультфильме обалванилась )

Создавать темы 26-Июл-2012 23:24

[Профиль]  [ЛС] 

jokerbek ®

Стаж: 6 лет 8 месяцев

Сообщений: 184

Симпатии: 9

сорй торрент файл обновил!!!

Создавать темы 27-Июл-2012 20:49

[Профиль]  [ЛС] 

jokerbek ®

Стаж: 6 лет 8 месяцев

Сообщений: 184

Симпатии: 9

народ 1-2 ден афк!!! бистреа скачай те )

Скриншоты

Создавать темы 28-Июл-2012 20:09

[Профиль]  [ЛС] 

doshlid

Стаж: 5 лет 7 месяцев

Сообщений: 23

Симпатии: 1

Что то в скрине качество хромает..

Создавать темы 05-Ноя-2012 10:43

[Профиль]  [ЛС] 

Ulug'bek

Стаж: 7 лет 3 месяца

Сообщений: 15

раздача пожалуйста!

Создавать темы 29-Янв-2014 13:11

[Профиль]  [ЛС] 

freestyle

Стаж: 5 лет 7 месяцев

Сообщений: 55

Симпатии: 4

сидеры вернитесь и дайте скорость

Создавать темы 07-Фев-2014 16:21

[Профиль]  [ЛС] 
Показать сообщения:    
Ответить на тему

Текущее время: 23-Авг 20:51

Часовой пояс: UTC + 5



Вы не можете начинать темы
Вы не можете отвечать на сообщения
Вы не можете редактировать свои сообщения
Вы не можете удалять свои сообщения
Вы не можете голосовать в опросах
Вы не можете прикреплять файлы к сообщениям
Вы не можете скачивать файлы