Наруто Ураганные хроники 271 серия / Naruto Shippuden 271 (Датэ Хаято) [2012 г., Приключения, Комедия, боевые, искусства, сёнэн]

Ответить на тему
 

XAKER_97 ®

Стаж: 5 лет 4 месяца

Сообщений: 27

Наруто Ураганные хроники 271 серия / Naruto Shippuden 271

Год выпуска: 2012
Страна: Япония
Жанр: Приключения, Комедия, боевые, искусства, сёнэн
Продолжительность: ~23mn 9s
Перевод: Любительский (одноголосый)
В ролях: Накамура Тиэ / 中村千絵 — Сакура Харуно
Такэучи Дзюнко / 竹内順子 — Наруто Узумаки
Сугияма Нориаки / 杉山紀彰 — Саске Учиха
Исида Акира / 石田彰 — Гаара
Иноуэ Кадзухико / 井上和彦 — Какаши Хатаке
Кудзира / くじら — Орочимару
Канна Нобутоси / 神奈延年 — Кабуто Якуси
Кацуки Масако / 勝生真沙子 — Цунадэ
Масукава Ёити / 増川洋一 — Рок Ли
Мидзуки Нана / 水樹奈々 — Хината Хьюга
Морикубо Сётаро / 森久保祥太郎 — Шикамару Нара
Оцука Хотю / 大塚芳忠 — Джирайя
Сибата Хидэкацу / 柴田秀勝 — Третий Хокаге
Исикава Хидэо / 石川英郎 — Итачи Учиха
Тотика Койти / 遠近孝一 — Нейджи Хьюга
Режиссер: Датэ Хаято
Описание: В мире Наруто незаметно пролетели два года. Бывшие новички пополнили ряды опытных синоби в ранге тюнин и дзёнин. Главные герои не сидели на месте – каждый стал учеником одного из легендарных Саннин – трех великих ниндзя Конохи. Парень в оранжевом продолжил обучение у мудрого, но эксцентричного Дзирайи, постепенно восходя на новую ступень боевого мастерства. Сакура выдвинулась в помощницы и доверенные лица целительницы Цунадэ – нового вождя Деревни Листвы. Ну а Саскэ, чья гордыня привела к изгнанию из Конохи, вступил во временный союз со зловещим Оротимару, причем каждый считает, что лишь использует другого до поры до времени. Краткая передышка закончилась, и события в очередной раз понеслись с ураганной быстротой. В Конохе вновь прорастают семена старых раздоров, посеянные первыми Хокагэ. Таинственный лидер Акацуки привел в действие план обретения мирового господства. Неспокойно в Деревне Песка и соседних странах, везде всплывают старые тайны, и ясно, что когда-то придется платить по счетам. Долгожданное продолжение манги вдохнуло новую жизнь в сериал и новую надежду в сердца бесчисленных фанатов!
Видео
Длительность: 00:23:09
Кодек: AVC
Кодек/Профиль: [email protected]
Кодек/ID: V_MPEG4/ISO/AVC
Размеры изображения: 1280 x 720 (16:9)
Частота кадров: 23.976 fps
Размер потока: 243 MiB (87%)
Битрейт: 1 500 Kbps
Библиотека кодирования: x264 core 120 r2151 a3f4407
Настройки кодирования: cabac=1 / ref=3 / deblock=1:0:0 / analyse=0x3:0x113 / me=hex / subme=7 / psy=1 / psy_rd=1,00:0,00 / mixed_ref=1 / me_range=16 / chroma_me=1 / trellis=1 / 8x8dct=1 / cqm=0 / deadzone=21,11 / fast_pskip=1 / chroma_qp_offset=-2 / threads=6 / sliced_threads=0 / nr=0 / decimate=1 / interlaced=0 / bluray_compat=0 / constrained_intra=0 / bframes=3 / b_pyramid=2 / b_adapt=1 / b_bias=0 / direct=1 / weightb=1 / open_gop=0 / weightp=2 / keyint=250 / keyint_min=23 / scenecut=40 / intra_refresh=0 / rc_lookahead=40 / rc=2pass / mbtree=1 / bitrate=1500 / ratetol=1,0 / qcomp=0,60 / qpmin=0 / qpmax=51 / qpstep=4 / cplxblur=20,0 / qblur=0,5 / ip_ratio=1,40 / aq=1:1,00
Звук #1
Длительность: 00:23:09.664
Кодек: AC-3
Кодек/ID: A_AC3
Частота дискретизации: 48.0 KHz
Каналов: 2 channels
Битрейт: 192 Kbps
Размер потока: 31.8 MiB (11%)

Скриншоты




Создавать темы 27-Июл-2012 22:59

[Профиль]  [ЛС] 

Sasuke_Uchiha

Стаж: 7 лет 4 месяца

Сообщений: 152

Симпатии: 2

Раздача будет или как?

Создавать темы 28-Июл-2012 11:31

[Профиль]  [ЛС] 

Uzumaki_Naruto

Стаж: 6 лет 8 месяцев

Сообщений: 247

Симпатии: 3

Опять ФИЛЕРЫ!!!

Создавать темы 28-Июл-2012 12:40

[Профиль]  [ЛС] 

Danzo.Lol

Стаж: 5 лет 4 месяца

Сообщений: 58

Походу опять серия с воспоминаниями ?!

Создавать темы 28-Июл-2012 14:53

[Профиль]  [ЛС] 

Sasuke_Uchiha

Стаж: 7 лет 4 месяца

Сообщений: 152

Симпатии: 2

филлер посвящен выходу фильма Naruto Road to Ninja так что не кипешуйте ребята) филлер всего 1 будет следующая серия уже не филлер...

Создавать темы 28-Июл-2012 15:26

[Профиль]  [ЛС] 

Uzumaki_Naruto

Стаж: 6 лет 8 месяцев

Сообщений: 247

Симпатии: 3

О Успокоил спасибо Саске!

Создавать темы 28-Июл-2012 22:36

[Профиль]  [ЛС] 

Danzo.Lol

Стаж: 5 лет 4 месяца

Сообщений: 58

Ясно . А след. 272 серия августа 2 ого выйдет ?

Создавать темы 28-Июл-2012 23:00

[Профиль]  [ЛС] 

XAKER_97 ®

Стаж: 5 лет 4 месяца

Сообщений: 27

Ясно . А след. 272 серия августа 2 ого выйдет ?
Да! 2 августа

Создавать темы 28-Июл-2012 23:35

[Профиль]  [ЛС] 
Показать сообщения:    
Ответить на тему

Текущее время: 24-Окт 00:09

Часовой пояс: UTC + 5



Вы не можете начинать темы
Вы не можете отвечать на сообщения
Вы не можете редактировать свои сообщения
Вы не можете удалять свои сообщения
Вы не можете голосовать в опросах
Вы не можете прикреплять файлы к сообщениям
Вы не можете скачивать файлы