Новые приключения Аленушки и Еремы 2 (Георгий Гитис) [2009 г., мультфильм, семейный, комедия, DVDRip]

Ответить на тему
 

antanyletun ®

Стаж: 5 лет 6 месяцев

Сообщений: 74

Симпатии: 3

Новые приключения Аленушки и Еремы 2
Год выпуска: 2009
Страна:
Жанр: мультфильм, семейный, комедия
Продолжительность: 01:14:55
Перевод: Не требуется
Режиссер: Георгий Гитис
В ролях: Антон Макарский, Инна Гомес, Юлия Ковальчук, Александр Ревва, Сергей Чонишвили, Рената Литвинова, Александр Пожаров, Евгений Воскресенский, Александр Наумов, Наталья Щукина
Описание: Итак, Ерема женится на Аленушке, Шах — на царевне Всеславе. Получив доступ к нефтяным фонтанам, царевна строит «паролет». Коварный Рыцарь похищает у царевны новый летательный аппарат, а в придачу и Шаха. Приземлившись в Африке, Рыцарь и Шах попадают в плен к людоедам… Всеслава, Аленушка, Ерема и Царь на «крылолете» отправляются на поиски. Но кто спасет героев в последнюю минуту?
Доп. информация: Media Info
D:\мультики\novye_prikljuchenija_alenushki_i_eremy.avi
General
Complete name : D:\мультики\novye_prikljuchenija_alenushki_i_eremy.avi
Format : AVI
Format/Info : Audio Video Interleave
File size : 1.36 GiB
Duration : 1h 14mn
Overall bit rate : 2 607 Kbps
Movie name : Novye prikljuchenija Alenushki i Eremy (2009)
Director : ELEKTRI4KA
Writing application : VirtualDubMod 1.5.10.2 (build 2540/release)
Copyright : http://uniongang.ru/
Video #0
ID : 0
Format : MPEG-4 Visual
Format profile : Advanced [email protected]
Format settings, BVOP : 3
Format settings, QPel : No
Format settings, GMC : No warppoints
Format settings, Matrix : Custom
Codec ID : XVID
Codec ID/Hint : XviD
Duration : 1h 14mn
Bit rate : 2 150 Kbps
Width : 720 pixels
Height : 400 pixels
Display aspect ratio : 16:9
Frame rate : 25.000 fps
Color space : YUV
Chroma subsampling : 4:2:0
Bit depth : 8 bits
Scan type : Progressive
Compression mode : Lossy
Bits/(Pixel*Frame) : 0.299
Stream size : 1.12 GiB (82%)
Writing library : XviD 1.2.1 (UTC 2008-12-04)
Audio #1
ID : 1
Format : AC-3
Format/Info : Audio Coding 3
Mode extension : CM (complete main)
Codec ID : 2000
Duration : 1h 14mn
Bit rate mode : Constant
Bit rate : 448 Kbps
Channel(s) : 6 channels
Channel positions : Front: L C R, Side: L R, LFE
Sampling rate : 48.0 KHz
Bit depth : 16 bits
Compression mode : Lossy
Stream size : 240 MiB (17%)
Alignment : Split accross interleaves
Interleave, duration : 40 ms (1.00 video frame)
Interleave, preload duration : 500 ms
Качество: DVDRip
Формат: AVI
Видео кодек: XviD
Аудио кодек: AC3
Видео: MPEG-4 Visual, 2150 Kbps, 720x400 (16:9), 25.000 fps
Аудио: AC 3, 448 Kbps, 6 channels, 48 KHz

Скриншоты





Последний раз редактировалось: antanyletun (2012-08-13 21:58), всего редактировалось 1 раз

Создавать темы 28-Июл-2012 09:41

[Профиль]  [ЛС] 

Koresarimi

Стаж: 5 лет 7 месяцев

Сообщений: 41

Симпатии: 1

УГу чё за мульт ёпТ))

Создавать темы 09-Авг-2012 11:23

[Профиль]  [ЛС] 

antanyletun ®

Стаж: 5 лет 6 месяцев

Сообщений: 74

Симпатии: 3

УГу чё за мульт ёпТ))
это очередной мультфильм от компании Мельницы, старые мультфильмы на новый лад, смешной мультфильм,это вторая часть, есть ещё первая часть этого мультфильма...

Создавать темы 10-Авг-2012 08:37

[Профиль]  [ЛС] 

antanyletun ®

Стаж: 5 лет 6 месяцев

Сообщений: 74

Симпатии: 3

Раздовать будите?
раздача идет были тех проблемы с машиной все востановлено

Создавать темы 23-Авг-2012 17:32

[Профиль]  [ЛС] 

DIMID

Стаж: 5 лет

Сообщений: 60

Симпатии: 8

Пожалуйста, добавьте скорости, спасибо!

Создавать темы 31-Окт-2012 01:41

[Профиль]  [ЛС] 

antanyletun ®

Стаж: 5 лет 6 месяцев

Сообщений: 74

Симпатии: 3

Пожалуйста, добавьте скорости, спасибо!
встал на раздачу пожалуйста качайте....

Создавать темы 01-Ноя-2012 23:10

[Профиль]  [ЛС] 

артист

Стаж: 5 лет 5 месяцев

Сообщений: 17

Скачал, классный мультик, дети в восторге!

Создавать темы 09-Ноя-2012 09:46

[Профиль]  [ЛС] 

enay

Стаж: 5 лет 9 месяцев

Сообщений: 1

народ...ну дайте докачать!!!!!!

Создавать темы 12-Дек-2012 21:11

[Профиль]  [ЛС] 
Показать сообщения:    
Ответить на тему

Текущее время: 18-Ноя 11:41

Часовой пояс: UTC + 5



Вы не можете начинать темы
Вы не можете отвечать на сообщения
Вы не можете редактировать свои сообщения
Вы не можете удалять свои сообщения
Вы не можете голосовать в опросах
Вы не можете прикреплять файлы к сообщениям
Вы не можете скачивать файлы