WWE Friday Night Smackdown 2012/07/27 [2012 г., Реслинг, HDTV]

Ответить на тему
 

Спартанец ®

Стаж: 5 лет 8 месяцев

Сообщений: 361

WWE Friday Night Smackdown 2012/07/27
Год выпуска: 2012
Вид спорта: Реслинг
Участники: Звезды WWE
Продолжительность: 01.36.45
Комментарий: Профессиональный (многоголосый, закадровый)
Язык комментариев: Русский
Описание: Еженедельный выпуск Friday Night Smackdown. Выпуск от 27-го июля 2012 года
Качество: HDTV
Формат: Mр4
Видео кодек: AVC/x264
Аудио кодек: AAC
Видео: MPEG4, Video, (H264), 704x400, 30fps, 1 500 Kbps
Аудио: AAC, 44100Hz, stereo, 1411kbps, 128 Kbps

Кард

The Miz vs. Christian - WWE Intercontinental Championship
Jinder Mahal vs. Ryback
Cody Rhodes vs. Sheamus
Antonio Cesaro vs. Santino Marella
Damien Sandow vs. Yoshi Tatsu
Alberto Del Rio (w/Ricardo Rodriguez) vs. Daniel Bryan vs. Kane vs. Rey Mysterio - World Heavyweight Title #1 Contendership Fatal Four Way Match

Скриншоты



МедиаИнфо

General
Format : MPEG-4
Format profile : Base Media
Codec ID : isom
File size : 1.08 GiB
Duration : 1h 36mn
Overall bit rate mode : Variable
Overall bit rate : 1 595 Kbps
Encoded date : UTC 2012-07-27 02:10:18
Tagged date : UTC 2012-07-27 02:10:18
Writing application : Yamb 2.1.0.0 [http://yamb.unite-video.com]
Video
ID : 2
Format : AVC
Format/Info : Advanced Video Codec
Format profile : [email protected]
Format settings, CABAC : Yes
Format settings, ReFrames : 3 frames
Codec ID : avc1
Codec ID/Info : Advanced Video Coding
Duration : 1h 36mn
Bit rate mode : Constant
Bit rate : 1 500 Kbps / 1 500 Kbps
Maximum bit rate : 2 441 Kbps
Width : 704 pixels
Height : 400 pixels
Display aspect ratio : 16:9
Frame rate mode : Constant
Frame rate : 30.000 fps
Standard : NTSC
Color space : YUV
Chroma subsampling : 4:2:0
Bit depth : 8 bits
Scan type : Progressive
Bits/(Pixel*Frame) : 0.178
Stream size : 1 013 MiB (92%)
Writing library : x264 core 114
Encoding settings : cabac=1 / ref=3 / deblock=1:0:0 / analyse=0x3:0x113 / me=hex / subme=7 / psy=1 / psy_rd=1.00:0.00 / mixed_ref=1 / me_range=16 / chroma_me=1 / trellis=1 / 8x8dct=1 / cqm=2 / deadzone=21,11 / fast_pskip=1 / chroma_qp_offset=-2 / threads=6 / sliced_threads=0 / slices=1 / nr=0 / decimate=1 / interlaced=0 / constrained_intra=0 / bframes=3 / b_pyramid=0 / b_adapt=1 / b_bias=0 / direct=1 / weightb=1 / open_gop=0 / weightp=2 / keyint=250 / keyint_min=25 / scenecut=40 / intra_refresh=0 / rc_lookahead=40 / rc=cbr / mbtree=1 / bitrate=1500 / ratetol=1.0 / qcomp=0.60 / qpmin=3 / qpmax=69 / qpstep=4 / vbv_maxrate=1500 / vbv_bufsize=1490 / nal_hrd=cbr / ip_ratio=1.40 / aq=1:1.00
Tagged date : UTC 2012-07-27 02:10:56
Color primaries : BT.601-6 525, BT.1358 525, BT.1700 NTSC, SMPTE 170M
Transfer characteristics : BT.601-6 525, BT.601-6 625, BT.1358 525, BT.1358 625, BT.1700 NTSC, SMPTE 170M
Matrix coefficients : BT.601-6 525, BT.1358 525, BT.1700 NTSC, SMPTE 170M
Audio
ID : 3
Format : AAC
Format/Info : Advanced Audio Codec
Format profile : LC
Codec ID : 40
Duration : 1h 36mn
Bit rate mode : Variable
Bit rate : 128 Kbps
Maximum bit rate : 187 Kbps
Channel(s) : 2 channels
Channel positions : Front: L R
Sampling rate : 44.1 KHz
Compression mode : Lossy
Stream size : 88.6 MiB (8%)
Encoded date : UTC 2012-07-27 02:10:52
Tagged date : UTC 2012-07-27 02:10:56

Создавать темы 29-Июл-2012 08:56

[Профиль]  [ЛС] 

NodirAgenT

Стаж: 6 лет 6 месяцев

Сообщений: 204

Кул Знаю чем кончилось очень интерсный Первый и Поседний Бой советую посмотреть ну думаю Все Бои Рея Классные

_________________
Подпись отключена за нарушение правил форума

Создавать темы 29-Июл-2012 13:03

[Профиль]  [ЛС] 

NodirAgenT

Стаж: 6 лет 6 месяцев

Сообщений: 204

Чуть не забыл Ждем
11 января 2013 года пройдет одно из главных событий в WWE — это 20-летие шоу RAW.

_________________
Подпись отключена за нарушение правил форума

Создавать темы 29-Июл-2012 13:39

[Профиль]  [ЛС] 

The Game

Стаж: 5 лет 7 месяцев

Сообщений: 80

Симпатии: 1

Спартанец, У тебя нету Royal rumble 2012
Если есть выложи зарание спс

Создавать темы 29-Июл-2012 21:20

[Профиль]  [ЛС] 

Emil_Safa

Стаж: 5 лет 4 месяца

Сообщений: 102

Спартанец, У тебя нету Royal rumble 2012
Если есть выложи зарание спс
+10 за королевскую битву
Интересные бои,спасибо

Создавать темы 29-Июл-2012 21:30

[Профиль]  [ЛС] 

Спартанец ®

Стаж: 5 лет 8 месяцев

Сообщений: 361

Не парни, такого нету )

Создавать темы 29-Июл-2012 23:21

[Профиль]  [ЛС] 

rey mysterio

Стаж: 5 лет 9 месяцев

Сообщений: 164

СПС )) +1

Создавать темы 30-Июл-2012 10:13

[Профиль]  [ЛС] 

LiX

Стаж: 6 лет 5 месяцев

Сообщений: 254

Симпатии: 6

Ребята кто скачал вырежете и выложите на мувер или куда-то вот эти бои:Jinder Mahal vs. Ryback
Damien Sandow vs. Yoshi Tatsu
Просто по телеку остальные видел! Пожалуйста кто может сообщите

Создавать темы 30-Июл-2012 19:02

[Профиль]  [ЛС] 

NodirAgenT

Стаж: 6 лет 6 месяцев

Сообщений: 204

Сплойлер :
Матчи на WWE Friday Night SmackDown! 03.08.2012:
*
*
*
*
*
*
*
* World Hvt. Champion Sheamus vs Tensai.
* WWE United States Champion Santino Marella vs. Antonio Cesaro
* WWE Intercontinental Champion The Miz, Daniel Bryan & Dolph Ziggler vs. Christian, Kane & Chris Jericho
* Ryback vs. Jinder Mahal
* WWE Tag Team Champion R-Truth vs. Darren Young
* Randy Orton vs. Alberto Del Rio
Новым GM SmackDown! становится: Booker T

_________________
Подпись отключена за нарушение правил форума

Создавать темы 01-Авг-2012 15:37

[Профиль]  [ЛС] 

Ala

Стаж: 6 лет 6 месяцев

Сообщений: 45

прибавь чуток скорости, а то давно не смотрели))

Создавать темы 08-Авг-2012 17:05

[Профиль]  [ЛС] 

Спартанец ®

Стаж: 5 лет 8 месяцев

Сообщений: 361

Ну слава богу, исправили ))

Создавать темы 08-Авг-2012 22:43

[Профиль]  [ЛС] 

LiX

Стаж: 6 лет 5 месяцев

Сообщений: 254

Симпатии: 6

Ну слава богу, исправили ))
Слава!)))

Создавать темы 08-Авг-2012 22:49

[Профиль]  [ЛС] 
Показать сообщения:    
Ответить на тему

Текущее время: 24-Окт 09:17

Часовой пояс: UTC + 5



Вы не можете начинать темы
Вы не можете отвечать на сообщения
Вы не можете редактировать свои сообщения
Вы не можете удалять свои сообщения
Вы не можете голосовать в опросах
Вы не можете прикреплять файлы к сообщениям
Вы не можете скачивать файлы