Три метра над уровнем неба: Я тебя хочу / Tengo ganas de ti (Фернандо Гонзалез Молина) [2012 г., драма, мелодрама, DVDRip]

Страницы :  1, 2, 3, 4, 5, 6  След.

Ответить на тему
 

alx777 ®

Стаж: 5 лет 7 месяцев

Сообщений: 87

Симпатии: 8

Три метра над уровнем неба: Я тебя хочу / Tengo ganas de ti
Год выпуска: 2012
Страна: Испания
Жанр: драма, мелодрама
Продолжительность: 01:58:38
Перевод: Профессиональный (полное дублирование) || цифровой канал "Кинорейс"
Режиссер: Фернандо Гонзалез Молина
В ролях: Марио Касас, Мария Вальверде, Клара Лаго, Альваро Сервантес, Нереа Камачо, Луис Фернандез, Марина Салас, Андреа Дуро, Диего Мартин, Эндрю Тарбет
Описание: Проведя два года в Лондоне, Аче возвращается домой, чтобы начать новую жизнь: устроиться на работу, завести новых друзей. Однако многое изменилось и встреча с Джин заставляет Аче почувствовать то, что он чувствовал только к Баби — своей первой большой и настоящей любви…

 
Качество: DVDRip
Формат: AVI
Видео кодек: XviD
Аудио кодек: AC3
Видео: XviD,704x288 , 1447 kb/s
Аудио: AC3, 192 kb/s (2 ch)

MediaInfo

Format : AVI
Format/Info : Audio Video Interleave
File size : 1.37 GiB
Duration : 1h 58mn
Overall bit rate : 1 649 Kbps
Writing application : VirtualDubMod 1.5.10.2 (build 2540/release)
Writing library : VirtualDubMod build 2540/release
Video
ID : 0
Format : MPEG-4 Visual
Format profile : Advanced Simple@L5
Format settings, BVOP : 2
Format settings, QPel : No
Format settings, GMC : No warppoints
Format settings, Matrix : Default (MPEG)
Muxing mode : Packed bitstream
Codec ID : XVID
Codec ID/Hint : XviD
Duration : 1h 58mn
Bit rate : 1 448 Kbps
Width : 704 pixels
Height : 288 pixels
Display aspect ratio : 2.40:1
Frame rate : 25.000 fps
Color space : YUV
Chroma subsampling : 4:2:0
Bit depth : 8 bits
Scan type : Progressive
Compression mode : Lossy
Bits/(Pixel*Frame) : 0.286
Stream size : 1.20 GiB (88%)
Writing library : XviD 64
Audio
ID : 1
Format : AC-3
Format/Info : Audio Coding 3
Mode extension : CM (complete main)
Codec ID : 2000
Duration : 1h 58mn
Bit rate mode : Constant
Bit rate : 192 Kbps
Channel(s) : 2 channels
Channel positions : Front: L R
Sampling rate : 44.1 KHz
Bit depth : 16 bits
Compression mode : Lossy
Stream size : 163 MiB (12%)
Alignment : Split accross interleaves
Interleave, duration : 40 ms (1.00 video frame)
Interleave, preload duration : 500 ms

Скриншоты





Последний раз редактировалось: alx777 (2012-07-30 20:51), всего редактировалось 1 раз

Создавать темы 30-Июл-2012 19:59

[Профиль]  [ЛС] 

Torpedus_link

Стаж: 5 лет 3 месяца

Сообщений: 80

Симпатии: 9

Перевод: Профессиональный (полное дублирование)[чистый звук] точно чистый звук ?

Создавать темы 30-Июл-2012 20:22

[Профиль]  [ЛС] 

alx777 ®

Стаж: 5 лет 7 месяцев

Сообщений: 87

Симпатии: 8

Перевод: Профессиональный (полное дублирование)[чистый звук] точно чистый звук ?
Скачал и проверил лично, точно LINE.промотал до титров

Создавать темы 30-Июл-2012 20:27

[Профиль]  [ЛС] 

Саидчик

Стаж: 6 лет 3 месяца

Сообщений: 4

ВАУ СПС БРАТКА ЖДАЛ

Создавать темы 30-Июл-2012 20:28

[Профиль]  [ЛС] 

Pendalf

Стаж: 6 лет 3 месяца

Сообщений: 416

Симпатии: 34

Неизвестно откуда звук. На источнике говорят, что с ДВД диска рипнули. Даже медиаинфо выложили.
General
Complete name : H:\VIDEO_TS\VTS_01_1.VOB
Format : MPEG-PS
File size : 1 024 MiB
Duration : 27mn 54s
Overall bit rate mode : Variable
Overall bit rate : 5 129 Kbps
Video
ID : 224 (0xE0)
Format : MPEG Video
Format version : Version 2
Format profile : Main@Main
Format settings, BVOP : Yes
Format settings, Matrix : Default
Format settings, GOP : M=3, N=12
Duration : 27mn 54s
Bit rate mode : Variable
Bit rate : 4 834 Kbps
Maximum bit rate : 7 000 Kbps
Width : 720 pixels
Height : 576 pixels
Display aspect ratio : 16:9
Frame rate : 25.000 fps
Standard : PAL
Color space : YUV
Chroma subsampling : 4:2:0
Bit depth : 8 bits
Scan type : Progressive
Compression mode : Lossy
Bits/(Pixel*Frame) : 0.466
Stream size : 965 MiB (94%)
Audio
ID : 189 (0xBD)-128 (0x80)
Format : AC-3
Format/Info : Audio Coding 3
Mode extension : CM (complete main)
Muxing mode : DVD-Video
Duration : 27mn 54s
Bit rate mode : Constant
Bit rate : 192 Kbps
Channel(s) : 2 channels
Channel positions : Front: L R
Sampling rate : 48.0 KHz
Bit depth : 16 bits
Compression mode : Lossy
Delay relative to video : -80ms
Stream size : 38.3 MiB (4%)
Menu
Пока проверять не буду. Подождем, может DVD всплывет)

Создавать темы 30-Июл-2012 20:40

[Профиль]  [ЛС] 

Uzumaki_Naruto

Стаж: 6 лет 7 месяцев

Сообщений: 247

Симпатии: 3

Стоит скачать?

Создавать темы 30-Июл-2012 20:42

[Профиль]  [ЛС] 

onnofon

Стаж: 5 лет 3 месяца

Сообщений: 3

Думаю стоит качать. Первая часть мне понравилась. Смотрел вместе с женой с удовольствием

Создавать темы 30-Июл-2012 20:46

[Профиль]  [ЛС] 

Сулейман

Стаж: 7 лет 1 месяц

Сообщений: 122

Пересмотрел 5 раз 1 ю часть=) хороший фильм.

Создавать темы 30-Июл-2012 22:14

[Профиль]  [ЛС] 

Uzumaki_Naruto

Стаж: 6 лет 7 месяцев

Сообщений: 247

Симпатии: 3

Спасибо за советы!!!

Создавать темы 30-Июл-2012 22:49

[Профиль]  [ЛС] 

madboy

Стаж: 6 лет 4 месяца

Сообщений: 6

Люди, дайте пожалуйста скорости!!! Заранее спасибо!!! МИР!!!

Создавать темы 30-Июл-2012 23:28

[Профиль]  [ЛС] 

maksim_astaev

Стаж: 5 лет 2 месяца

Сообщений: 11

ура, наконец то))

Создавать темы 30-Июл-2012 23:31

[Профиль]  [ЛС] 

Frady54

Стаж: 5 лет 8 месяцев

Сообщений: 20

а че не качает ?

Создавать темы 31-Июл-2012 00:35

[Профиль]  [ЛС] 

Rustam339

Стаж: 5 лет 5 месяцев

Сообщений: 6

Симпатии: 2

Всё в полном качестве, спасибо офигенно! Встаю на раздачу)

Создавать темы 31-Июл-2012 00:47

[Профиль]  [ЛС] 

doniyor_alimov

Стаж: 5 лет 6 месяцев

Сообщений: 18

вау спс! долго ждал!

Создавать темы 31-Июл-2012 00:51

[Профиль]  [ЛС] 

doniyor_alimov

Стаж: 5 лет 6 месяцев

Сообщений: 18

а че не качает ?

Создавать темы 31-Июл-2012 00:53

[Профиль]  [ЛС] 
Показать сообщения:    
Ответить на тему

Текущее время: 24-Сен 13:41

Часовой пояс: UTC + 5



Вы не можете начинать темы
Вы не можете отвечать на сообщения
Вы не можете редактировать свои сообщения
Вы не можете удалять свои сообщения
Вы не можете голосовать в опросах
Вы не можете прикреплять файлы к сообщениям
Вы не можете скачивать файлы