WWE Friday Night Smackdown 03/08/2012 [2012 г., Реслинг, HDTV]

Ответить на тему
 

Спартанец ®

Стаж: 5 лет 10 месяцев

Сообщений: 361

WWE Friday Night Smackdown 03/08/2012
Год выпуска: 2012
Вид спорта: Реслинг
Участники: Звезды WWE
Продолжительность: 01.36.04
Комментарий: Профессиональный (многоголосый, закадровый)
Язык комментариев: Русский
Описание: Еженедельный выпуск Friday Night Smackdown. Выпуск от 03-го августа 2012 года
Качество: HDTV
Формат: Mр4
Видео кодек: х264\AVC
Аудио кодек: AAC
Видео: MPEG4, Video, (H264), 704x400, 29.97fps, 1 500 Kbps
Аудио: AAC, 44100Hz, stereo, 1411kbps, 128 Kbps

Кард

Sheamus vs. Tensai
Antonio Cesaro vs. Santino Marella
Daniel Bryan and Dolph Ziggler and The Miz vs. Kane and Christian and Chris Jericho
Ryback vs. Jinder Mahal
Darren Young vs. R-Truth
Randy Orton vs. Alberto Del Rio

Скриншоты



МедиаИнфо

General
Format : MPEG-4
Format profile : Base Media
Codec ID : isom
File size : 1.06 GiB
Duration : 1h 36mn
Overall bit rate mode : Variable
Overall bit rate : 1 583 Kbps
Encoded date : UTC 2012-08-03 13:22:37
Tagged date : UTC 2012-08-03 13:22:37
Writing application : Yamb 2.1.0.0 [http://yamb.unite-video.com]
Video
ID : 2
Format : AVC
Format/Info : Advanced Video Codec
Format profile : [email protected]
Format settings, CABAC : Yes
Format settings, ReFrames : 3 frames
Codec ID : avc1
Codec ID/Info : Advanced Video Coding
Duration : 1h 35mn
Bit rate mode : Constant
Bit rate : 1 500 Kbps / 1 500 Kbps
Maximum bit rate : 2 543 Kbps
Width : 704 pixels
Height : 400 pixels
Display aspect ratio : 16:9
Frame rate mode : Constant
Frame rate : 29.970 fps
Standard : NTSC
Color space : YUV
Chroma subsampling : 4:2:0
Bit depth : 8 bits
Scan type : Progressive
Bits/(Pixel*Frame) : 0.178
Stream size : 997 MiB (92%)
Writing library : x264 core 114
Encoding settings : cabac=1 / ref=3 / deblock=1:0:0 / analyse=0x3:0x113 / me=hex / subme=7 / psy=1 / psy_rd=1.00:0.00 / mixed_ref=1 / me_range=16 / chroma_me=1 / trellis=1 / 8x8dct=1 / cqm=2 / deadzone=21,11 / fast_pskip=1 / chroma_qp_offset=-2 / threads=6 / sliced_threads=0 / slices=1 / nr=0 / decimate=1 / interlaced=0 / constrained_intra=0 / bframes=3 / b_pyramid=0 / b_adapt=1 / b_bias=0 / direct=1 / weightb=1 / open_gop=0 / weightp=2 / keyint=250 / keyint_min=25 / scenecut=40 / intra_refresh=0 / rc_lookahead=40 / rc=cbr / mbtree=1 / bitrate=1500 / ratetol=1.0 / qcomp=0.60 / qpmin=3 / qpmax=69 / qpstep=4 / vbv_maxrate=1500 / vbv_bufsize=1490 / nal_hrd=cbr / ip_ratio=1.40 / aq=1:1.00
Tagged date : UTC 2012-08-03 13:23:34
Color primaries : BT.601-6 525, BT.1358 525, BT.1700 NTSC, SMPTE 170M
Transfer characteristics : BT.601-6 525, BT.601-6 625, BT.1358 525, BT.1358 625, BT.1700 NTSC, SMPTE 170M
Matrix coefficients : BT.601-6 525, BT.1358 525, BT.1700 NTSC, SMPTE 170M
Audio
ID : 3
Format : AAC
Format/Info : Advanced Audio Codec
Format profile : LC
Codec ID : 40
Duration : 1h 36mn
Bit rate mode : Variable
Bit rate : 128 Kbps
Maximum bit rate : 230 Kbps
Channel(s) : 2 channels
Channel positions : Front: L R
Sampling rate : 44.1 KHz
Compression mode : Lossy
Stream size : 87.6 MiB (8%)
Encoded date : UTC 2012-08-03 13:23:29
Tagged date : UTC 2012-08-03 13:23:34

Создавать темы 09-Авг-2012 06:30

[Профиль]  [ЛС] 

Emil_Safa

Стаж: 5 лет 6 месяцев

Сообщений: 102

Спасибо за смек я догадался кто Генеральный менеджер=)
Кен у дигет сака!!

Создавать темы 10-Авг-2012 22:51

[Профиль]  [ЛС] 

McFLY

Стаж: 5 лет 9 месяцев

Сообщений: 658

Симпатии: 22

Спасибо за смек я догадался кто Генеральный менеджер=)
Кен у дигет сака!!
да ладно:) не может быть :) я тоже :)

Создавать темы 10-Авг-2012 23:32

[Профиль]  [ЛС] 

Спартанец ®

Стаж: 5 лет 10 месяцев

Сообщений: 361

пля, на скринах спалился :)))

Создавать темы 10-Авг-2012 23:37

[Профиль]  [ЛС] 

Ala

Стаж: 6 лет 8 месяцев

Сообщений: 45

Спартанец, я на скрины вообще не смотрю, чтобы интерес не пропал))

Создавать темы 10-Авг-2012 23:49

[Профиль]  [ЛС] 

Kroys

Стаж: 6 лет 2 месяца

Сообщений: 187

Симпатии: 1

Букыр что ли :)? ахах :)

Создавать темы 11-Авг-2012 01:56

[Профиль]  [ЛС] 

Спартанец ®

Стаж: 5 лет 10 месяцев

Сообщений: 361

Букр - ака )))) Может скрины вообще не загружать ? ))

Создавать темы 11-Авг-2012 06:06

[Профиль]  [ЛС] 

Emil_Safa

Стаж: 5 лет 6 месяцев

Сообщений: 102

Да ландо все равно интерес смотреть остался,вы же не написали кто победил)

Создавать темы 11-Авг-2012 10:23

[Профиль]  [ЛС] 

Kroys

Стаж: 6 лет 2 месяца

Сообщений: 187

Симпатии: 1

да ладно один раз чё такого , просто что букр стал ГМ , и всё ) блин я столько пропустил опишите как Э-джей , перестала быть ГМ ?)

Создавать темы 11-Авг-2012 14:14

[Профиль]  [ЛС] 

LiX

Стаж: 6 лет 6 месяцев

Сообщений: 254

Симпатии: 6

да ладно один раз чё такого , просто что букр стал ГМ , и всё ) блин я столько пропустил опишите как Э-джей , перестала быть ГМ ?)
AJ не перестала быть ГМ она только ГМ RAW, а Букр - ака ГМ Smackdown))

Создавать темы 11-Авг-2012 15:24

[Профиль]  [ЛС] 

Спартанец ®

Стаж: 5 лет 10 месяцев

Сообщений: 361

Точно, Ликс :))

Создавать темы 11-Авг-2012 16:37

[Профиль]  [ЛС] 
Показать сообщения:    
Ответить на тему

Текущее время: 18-Дек 12:13

Часовой пояс: UTC + 5



Вы не можете начинать темы
Вы не можете отвечать на сообщения
Вы не можете редактировать свои сообщения
Вы не можете удалять свои сообщения
Вы не можете голосовать в опросах
Вы не можете прикреплять файлы к сообщениям
Вы не можете скачивать файлы