Призрак / Ghost (Пуджа Джатиндер Беди / Puja Jatinder Bedi) [2012 г., драма, ужасы, DVDRip]

Ответить на тему
 

Suxrob89 ®

Стаж: 7 лет 1 месяц

Сообщений: 933

Симпатии: 564

--Призрак / Ghost-- Год выпуска: 2012
Страна: Индия
Жанр: драма, ужасы
Продолжительность: 01:54:19
Перевод: одноголосый закадровый den904
Перевод на русский: Алла Свирид & Jyoti
Cубтитры: нет--Режиссер: Пуджа Джатиндер Беди / Puja Jatinder Bedi--В ролях: Шайни Ахуджа
Саяли Бхагат
Тедж Сапру
Дипрадж Рана
Джулия Блисс
Гульшан Рана
Сандип Сопарркар--Описание: Действие фильма происходит в городской больнице, где по ночам совершается серия жестоких убийств. Молодая доктор Сухани (Саяли) становится свидетельницей всего происходящего и подозревает, что за убийствами стоит нечто сверхъестественное. К расследованию привлекается ведущее бюро, которое направляет на место преступления своего лучшего детектива Виджая (Шайни Ахуджа). Вскоре между Сухани и Виджаем возникают теплые чувства. Между тем убийства не прекращаются. Виджай принимает это дело очень близко к сердцу и намерен любой ценой отыскать убийцу. Но чем же объясняется такая заинтересованность с его стороны?..--Качество: DVDRip
Формат: AVI
Видео кодек: XviD
Аудио кодек: AC3
Видео: XviD, 720x304 (2.37:1), 25 fps, 1255 kbps avg, 0.23 bit/pixel
Аудио: Русский, 48 kHz, AC3 Dolby Digital, 6 channels, 448 kbps

Media info

E:\Ïðèçðàê Ghost\ghost_2012_kolobok_net_v_kino.avi
General
Complete name : E:\Ïðèçðàê Ghost\ghost_2012_kolobok_net_v_kino.avi
Format : AVI
Format/Info : Audio Video Interleave
File size : 1.37 GiB
Duration : 1h 54mn
Overall bit rate : 1 713 Kbps
Writing application : VirtualDubMod 1.5.10.2 (build 2540/release)
Writing library : VirtualDubMod build 2540/release
Video #0
ID : 0
Format : MPEG-4 Visual
Format profile : Advanced [email protected]
Format settings, BVOP : Yes
Format settings, QPel : No
Format settings, GMC : No warppoints
Format settings, Matrix : Custom
Codec ID : XVID
Codec ID/Hint : XviD
Duration : 1h 54mn
Bit rate : 1 256 Kbps
Width : 720 pixels
Height : 304 pixels
Display aspect ratio : 2.35:1
Frame rate : 25.000 fps
Color space : YUV
Chroma subsampling : 4:2:0
Bit depth : 8 bits
Scan type : Progressive
Bits/(Pixel*Frame) : 0.229
Stream size : 1.00 GiB (73%)
Writing library : XviD 1.2.1 (UTC 2008-12-04)
Audio #1
ID : 1
Format : AC-3
Format/Info : Audio Coding 3
Mode extension : CM (complete main)
Codec ID : 2000
Duration : 1h 54mn
Bit rate mode : Constant
Bit rate : 448 Kbps
Channel(s) : 6 channels
Channel positions : Front: L C R, Side: L R, LFE
Sampling rate : 48.0 KHz
Bit depth : 16 bits
Stream size : 366 MiB (26%)
Alignment : Split accross interleaves
Interleave, duration : 40 ms (1.00 video frame)
Interleave, preload duration : 500 ms

Скриншоты

Создавать темы 09-Авг-2012 10:27

[Профиль]  [ЛС] 

Koresarimi

Стаж: 5 лет 5 месяцев

Сообщений: 41

Симпатии: 1

УГу)) чё за муть это?))) интересная вооще дайте отзывы

Создавать темы 09-Авг-2012 11:17

[Профиль]  [ЛС] 

Muhammadnazar

Стаж: 4 года 8 месяцев

Сообщений: 28

Симпатии: 1

Отличный фильм!


Последний раз редактировалось: Muhammadnazar (2013-06-01 15:25), всего редактировалось 1 раз

Создавать темы 16-Янв-2013 07:21

[Профиль]  [ЛС] 

farhaa

Стаж: 6 лет 7 месяцев

Сообщений: 167

Симпатии: 2

Что Индия начал снимать ужасы????

Создавать темы 19-Янв-2013 02:09

[Профиль]  [ЛС] 

Muhammadnazar

Стаж: 4 года 8 месяцев

Сообщений: 28

Симпатии: 1

Да, снимают.


Последний раз редактировалось: Muhammadnazar (2013-06-01 15:27), всего редактировалось 2 раз(а)

Создавать темы 19-Янв-2013 02:21

[Профиль]  [ЛС] 

knyaz31337

Стаж: 6 лет 4 месяца

Сообщений: 396

Симпатии: 20

А здесь призрак тоже перед тем как убить танцует и поет? (Ну или после...)

Создавать темы 30-Янв-2013 08:49

[Профиль]  [ЛС] 

Muhammadnazar

Стаж: 4 года 8 месяцев

Сообщений: 28

Симпатии: 1

А как же! Всех индийских фильмах и в радосте и в печале поют, а в этом фильме призрак девушка как и догадались Вы сами, и танцует и поет! Настоящий прикол ужас!


Последний раз редактировалось: Muhammadnazar (2013-06-01 15:27), всего редактировалось 1 раз

Создавать темы 30-Янв-2013 23:29

[Профиль]  [ЛС] 

BruceLee

Стаж: 4 года 7 месяцев

Сообщений: 13

iiiiiiiiiiiiiiiiiiii

Создавать темы 21-Фев-2013 21:13

[Профиль]  [ЛС] 
Показать сообщения:    
Ответить на тему

Текущее время: 25-Сен 07:34

Часовой пояс: UTC + 5



Вы не можете начинать темы
Вы не можете отвечать на сообщения
Вы не можете редактировать свои сообщения
Вы не можете удалять свои сообщения
Вы не можете голосовать в опросах
Вы не можете прикреплять файлы к сообщениям
Вы не можете скачивать файлы