WWE Monday Night Raw 06/08/2012 [2012 г., Реслинг, HDTV]

Страницы :  1, 2  След.

Ответить на тему
 

Спартанец ®

Стаж: 5 лет 10 месяцев

Сообщений: 361

WWE Monday Night Raw 06/08/2012
Год выпуска: 2012
Вид спорта: Реслинг
Участники: Звезды WWE
Продолжительность: 02.12.14
Комментарий: Профессиональный (многоголосый, закадровый)
Язык комментариев: Русский
Описание: Еженедельный выпуск Monday Night Raw. Выпуск от 06-го августа 2012 года.
Качество: HDTV
Формат: Mр4
Видео кодек: х264\AVC
Аудио кодек: AAC
Видео: MPEG4, Video, (H264), 720x404, 25fps, 1 260 Kbps
Аудио: AAC, 44100Hz, stereo, 1411kbps, 128 Kbps

Кард

CM Punk vs. Rey Mysterio
Christian vs. Alberto Del Rio
Randy Orton vs. Big Show
Ryback vs. Tyler Reks and Curt Hawkins
Primo and Epico vs. Titus O’Neil and Darren Young
Brodus Clay vs. Damien Sandow
Kelly Kelly vs. Eve Torres
Dolph Ziggler vs. Alex Riley
John Cena vs. Daniel Bryan

Скриншоты



МедиаИнфо

General
Format : MPEG-4
Format profile : Base Media
Codec ID : isom
File size : 1.29 GiB
Duration : 2h 12mn
Overall bit rate mode : Variable
Overall bit rate : 1 392 Kbps
Encoded date : UTC 2012-08-06 19:02:31
Tagged date : UTC 2012-08-06 19:02:31
Writing application : Yamb 2.1.0.0 [http://yamb.unite-video.com]
Video
ID : 201
Format : AVC
Format/Info : Advanced Video Codec
Format profile : [email protected]
Format settings, CABAC : Yes
Format settings, ReFrames : 5 frames
Codec ID : avc1
Codec ID/Info : Advanced Video Coding
Duration : 2h 12mn
Bit rate : 1 260 Kbps
Maximum bit rate : 5 949 Kbps
Width : 720 pixels
Height : 404 pixels
Display aspect ratio : 16:9
Frame rate mode : Constant
Frame rate : 25.000 fps
Color space : YUV
Chroma subsampling : 4:2:0
Bit depth : 8 bits
Scan type : Progressive
Bits/(Pixel*Frame) : 0.173
Stream size : 1.16 GiB (91%)
Writing library : x264 core 125 r2200 999b753
Encoding settings : cabac=1 / ref=5 / deblock=1:0:0 / analyse=0x3:0x113 / me=umh / subme=8 / psy=1 / psy_rd=1.00:0.00 / mixed_ref=1 / me_range=16 / chroma_me=1 / trellis=1 / 8x8dct=1 / cqm=0 / deadzone=21,11 / fast_pskip=1 / chroma_qp_offset=-2 / threads=12 / lookahead_threads=2 / sliced_threads=0 / nr=0 / decimate=1 / interlaced=0 / bluray_compat=0 / constrained_intra=0 / bframes=3 / b_pyramid=2 / b_adapt=2 / b_bias=0 / direct=3 / weightb=1 / open_gop=0 / weightp=2 / keyint=250 / keyint_min=25 / scenecut=40 / intra_refresh=0 / rc_lookahead=50 / rc=crf / mbtree=1 / crf=24.0 / qcomp=0.60 / qpmin=0 / qpmax=69 / qpstep=4 / ip_ratio=1.40 / aq=1:1.00
Encoded date : UTC 2012-08-06 03:47:27
Tagged date : UTC 2012-08-06 19:03:34
Audio
ID : 202
Format : AAC
Format/Info : Advanced Audio Codec
Format profile : LC
Codec ID : 40
Duration : 2h 12mn
Bit rate mode : Variable
Bit rate : 128 Kbps
Maximum bit rate : 161 Kbps
Channel(s) : 2 channels
Channel positions : Front: L R
Sampling rate : 44.1 KHz
Compression mode : Lossy
Stream size : 121 MiB (9%)
Encoded date : UTC 2012-08-06 19:03:30
Tagged date : UTC 2012-08-06 19:03:34

Создавать темы 11-Авг-2012 06:33

[Профиль]  [ЛС] 

The Game

Стаж: 5 лет 8 месяцев

Сообщений: 80

Симпатии: 1

спс Спартанец,

Создавать темы 11-Авг-2012 08:12

[Профиль]  [ЛС] 

NodirAgenT

Стаж: 6 лет 7 месяцев

Сообщений: 204

1 Скрин Походу Панк Хильнулся Чтоль
2 Скрин Ща будет Битва
3 Ему Походу надо побрится
А так Бои круть седня о тв Посмарю Лень качать все равно спс

_________________
Подпись отключена за нарушение правил форума

Создавать темы 11-Авг-2012 09:06

[Профиль]  [ЛС] 

Спартанец ®

Стаж: 5 лет 10 месяцев

Сообщений: 361

Музычка на Ро в заставке стала в поряде )))

Создавать темы 11-Авг-2012 16:39

[Профиль]  [ЛС] 

Ala

Стаж: 6 лет 8 месяцев

Сообщений: 45

Спартанец, когда новые выпуски будут?

Создавать темы 16-Авг-2012 23:57

[Профиль]  [ЛС] 

McFLY

Стаж: 5 лет 9 месяцев

Сообщений: 658

Симпатии: 22

Ну насколько я понимаю Спартанец скоро двинет в Россию. Думается Summerslam мы ещё увидим :) А вот потом , хех , может кто перехватит инициативу.

Создавать темы 17-Авг-2012 00:26

[Профиль]  [ЛС] 

Kroys

Стаж: 6 лет 2 месяца

Сообщений: 187

Симпатии: 1

это плохо будет (( врят ли кто то её возьмёт :(

Создавать темы 17-Авг-2012 17:05

[Профиль]  [ЛС] 

Kroys

Стаж: 6 лет 2 месяца

Сообщений: 187

Симпатии: 1

надеятся не на кого , то есть кто будет с рунэта качать :(

Создавать темы 17-Авг-2012 17:05

[Профиль]  [ЛС] 

LiX

Стаж: 6 лет 6 месяцев

Сообщений: 254

Симпатии: 6

Kroys, Похоже на то (
Вроде был же кто-то кто хотел скачать с мира игры!

Создавать темы 17-Авг-2012 18:35

[Профиль]  [ЛС] 

Anicorn

Стаж: 5 лет 5 месяцев

Сообщений: 51

Может тогда по очереди качать и выкладывать? Думаю по полтора гига в месяц каждый себе позволить может.

Создавать темы 17-Авг-2012 18:52

[Профиль]  [ЛС] 

LiX

Стаж: 6 лет 6 месяцев

Сообщений: 254

Симпатии: 6

Anicorn, Ты что шутишь?)) У меня 600 мб траффика всего)))

Создавать темы 18-Авг-2012 13:01

[Профиль]  [ЛС] 

McFLY

Стаж: 5 лет 9 месяцев

Сообщений: 658

Симпатии: 22

Anicorn, Ты что шутишь?)) У меня 600 мб траффика всего)))
+1, 600 - антикризисный вариант :)
Но могу предложить свою помощь в оформлении релизов , без проблем.

Создавать темы 18-Авг-2012 13:31

[Профиль]  [ЛС] 

Anicorn

Стаж: 5 лет 5 месяцев

Сообщений: 51

Ничего себе! Народ, а как вам этих 600 мег хватает? Я тоже в принципе с мира не особо качаю, но 7-8 гигов за месяц улетает запросто!

Создавать темы 18-Авг-2012 20:23

[Профиль]  [ЛС] 

McFLY

Стаж: 5 лет 9 месяцев

Сообщений: 658

Симпатии: 22

Anicorn, жить захочешь , ещё не так раскорячишься :)

Создавать темы 18-Авг-2012 23:40

[Профиль]  [ЛС] 

Kroys

Стаж: 6 лет 2 месяца

Сообщений: 187

Симпатии: 1

я тоже не смогу с мира качать :(

Создавать темы 19-Авг-2012 00:13

[Профиль]  [ЛС] 
Показать сообщения:    
Ответить на тему

Текущее время: 13-Дек 15:53

Часовой пояс: UTC + 5



Вы не можете начинать темы
Вы не можете отвечать на сообщения
Вы не можете редактировать свои сообщения
Вы не можете удалять свои сообщения
Вы не можете голосовать в опросах
Вы не можете прикреплять файлы к сообщениям
Вы не можете скачивать файлы