Машина для убийств / Icarus (Дольф Лундгрен) [2010 г., Боевик, Триллер, Драма,, DVDRip]

Ответить на тему
 

Guff ®

Стаж: 5 лет 7 месяцев

Сообщений: 115

Симпатии: 164

Машина для убийств / Icarus
Слоган «Они не дадут ему завязать...»
Год выпуска: 2010
Страна: Канада
Жанр: Боевик, Триллер, Драма,
Продолжительность: 01:24:28
Перевод: Любительский (одноголосый)
Режиссер: Дольф Лундгрен
В ролях: Дольф Лундгрен, Стефани Фон Пфеттен, Саманта Феррис, Дэвид Льюис, Линдсэй Максвелл, Джон Тенч, Бо Свенсон, Кэтлин Магер, Моник Гэндертон, Слави Славов
Описание: Эдвард Дженн, в криминальном мире известный, как Икар, в обычной жизни — преуспевающий предприниматель и любящий отец. Однако, и у таких успешных людей, как он, есть свои скелеты в шкафу, и переходить такому человеку дорогу, — обрекать себя на верную гибель.
Такие люди всё же находятся, но они пока не знают, что уготовил им отчаянный Икар, который будет бороться до конца, дабы защитить себя, свою семью, своих близких. Борьбы до победного конца не избежать…
Качество: DVDRip
Формат: AVI
Видео кодек: XviD
Аудио кодек: AC3
Видео: 608x352, 25.00fps, 1 021 Kbps
Аудио: 48.0Hz, stereo, 192kbps, 2 ch

Медиа инфо

General
Complete name : E:\кино однако\раздача\новые\Icarus.DVDRip. 2010.avi
Format : AVI
Format/Info : Audio Video Interleave
File size : 738 MiB
Duration : 1h 24mn
Overall bit rate : 1 222 Kbps
Writing application : VirtualDubMod 1.5.10.2 (build 2540/release)
Writing library : VirtualDubMod build 2540/release
Video
ID : 0
Format : MPEG-4 Visual
Format profile : Advanced [email protected]
Format settings, BVOP : 1
Format settings, QPel : No
Format settings, GMC : No warppoints
Format settings, Matrix : Default (MPEG)
Muxing mode : Packed bitstream
Codec ID : XVID
Codec ID/Hint : XviD
Duration : 1h 24mn
Bit rate : 1 021 Kbps
Width : 608 pixels
Height : 352 pixels
Display aspect ratio : 16:9
Frame rate : 25.000 fps
Color space : YUV
Chroma subsampling : 4:2:0
Bit depth : 8 bits
Scan type : Progressive
Compression mode : Lossy
Bits/(Pixel*Frame) : 0.191
Stream size : 617 MiB (84%)
Writing library : XviD 1.2.0.dev47 (UTC 2006-11-01)
Audio
ID : 1
Format : AC-3
Format/Info : Audio Coding 3
Mode extension : CM (complete main)
Codec ID : 2000
Duration : 1h 24mn
Bit rate mode : Constant
Bit rate : 192 Kbps
Channel(s) : 2 channels
Channel positions : Front: L R
Sampling rate : 48.0 KHz
Bit depth : 16 bits
Compression mode : Lossy
Stream size : 116 MiB (16%)
Alignment : Split accross interleaves
Interleave, duration : 40 ms (1.00 video frame)
Interleave, preload duration : 500 ms

Скриншоты



Последний раз редактировалось: Guff (2012-11-21 12:04), всего редактировалось 1 раз

Создавать темы 12-Авг-2012 21:10

[Профиль]  [ЛС] 

victor0778

Стаж: 6 лет 6 месяцев

Сообщений: 1670

Симпатии: 142

Всё больше в Icarus не нагой

Создавать темы 13-Авг-2012 07:36

[Профиль]  [ЛС] 

Guff ®

Стаж: 5 лет 7 месяцев

Сообщений: 115

Симпатии: 164

Всё больше в Icarus не нагой
ag

Создавать темы 16-Авг-2012 00:00

[Профиль]  [ЛС] 

239tuit

Стаж: 4 года 11 месяцев

Сообщений: 75

Дольф Лундгрен ВООБЩЕ СУПЕР

Создавать темы 25-Авг-2012 19:52

[Профиль]  [ЛС] 

vanfank

Стаж: 4 года 3 месяца

Сообщений: 141

Симпатии: 5

старый добрый Икар

Создавать темы 13-Ноя-2013 17:01

[Профиль]  [ЛС] 
Показать сообщения:    
Ответить на тему

Текущее время: 19-Авг 08:52

Часовой пояс: UTC + 5



Вы не можете начинать темы
Вы не можете отвечать на сообщения
Вы не можете редактировать свои сообщения
Вы не можете удалять свои сообщения
Вы не можете голосовать в опросах
Вы не можете прикреплять файлы к сообщениям
Вы не можете скачивать файлы