Бобби / Bobby (Радж Капур) [1973 г., мелодрама, музыкальный, индийское кино, DVDRip]

Ответить на тему
 

odilbek85 ®

Стаж: 6 лет 6 месяцев

Сообщений: 29

Симпатии: 1

Бобби / Bobby
Год выпуска: 1973
Страна: R.K. Films Ltd., Индия
Жанр: мелодрама, музыкальный, индийское кино
Продолжительность: 02:17:24
Перевод: Профессиональный (полное дублирование)
Режиссер: Радж Капур
В ролях: Димпл Кападия, Риши Капур, Пран, Премнатх, Соня Сахни, Дурга Кхоте, Аруна Ирани, Радж Рани, Прем Чопра, Фарида Джалал, Пинчо Капур, Шаши Киран, Джагдиш Радж.
Описание: Радж — сын богатых и знаменитых родителей. Его будущее расписано на десять лет вперед: престижный институт, карьера юриста, невеста — дочь партнера отца. Но Радж влюбился в Бобби, дочь простого рыбака. Предрассудки и кастовое неравенство не позволяют влюбленным быть вместе...
Сумеют ли Радж и Бобби преодолеть все трудности, которые преподнесёт им судьба на пути к счастью?
Доп. информация: KINOPOISK: - 7.219 IMDb: - 6.80
Качество: DVDRip
Формат: AVI
Видео кодек: DivX
Аудио кодек: MP3
Видео: 512x384, DivX, 25 кадров/сек, 1390 кбит/с
Аудио: 48 кГц, Lame MP3, 128 кбит/с

Скриншоты

Медиа Инфо

Bobby.DVDRip.avi
Format : AVI
Format/Info : Audio Video Interleave
File size : 1.37 GiB
Duration : 2h 17mn
Overall bit rate : 1 424 Kbps
Writing application : Nandub v1.0rc2
Writing library : Nandub build 1852/release
Video
ID : 0
Format : MPEG-4 Visual
Format settings, BVOP : 1
Format settings, QPel : No
Format settings, GMC : No warppoints
Format settings, Matrix : Default (H.263)
Muxing mode : Packed bitstream
Codec ID : DX50
Codec ID/Hint : DivX 5
Duration : 2h 17mn
Bit rate : 1 287 Kbps
Width : 512 pixels
Height : 384 pixels
Display aspect ratio : 4:3
Frame rate : 25.000 fps
Color space : YUV
Chroma subsampling : 4:2:0
Bit depth : 8 bits
Scan type : Progressive
Compression mode : Lossy
Bits/(Pixel*Frame) : 0.262
Stream size : 1.23 GiB (90%)
Writing library : DivX 6.4.0 (UTC 2006-10-03)
Audio
ID : 1
Format : MPEG Audio
Format version : Version 1
Format profile : Layer 3
Mode : Joint stereo
Mode extension : MS Stereo
Codec ID : 55
Codec ID/Hint : MP3
Duration : 2h 17mn
Bit rate mode : Constant
Bit rate : 128 Kbps
Channel(s) : 2 channels
Sampling rate : 48.0 KHz
Compression mode : Lossy
Stream size : 126 MiB (9%)
Alignment : Split accross interleaves
Interleave, duration : 40 ms (1.00 video frame)
Interleave, preload duration : 500 ms

Создавать темы 14-Авг-2012 12:18

[Профиль]  [ЛС] 

Jahongir_doc

Стаж: 5 лет 9 месяцев

Сообщений: 2

а почему не качается?

Создавать темы 17-Авг-2012 16:51

[Профиль]  [ЛС] 

Zuqi

Стаж: 6 лет 6 месяцев

Сообщений: 22

Полного источника не было: Никогда?

Создавать темы 17-Авг-2012 23:11

[Профиль]  [ЛС] 

YUPI

Стаж: 5 лет 3 месяца

Сообщений: 56

Симпатии: 1

Никогда не будет...

Создавать темы 18-Авг-2012 07:54

[Профиль]  [ЛС] 

фазилов

Стаж: 3 года 8 месяцев

Сообщений: 310

Симпатии: 344

423158Никогда не будет...
Пока у меня есть.

Создавать темы 22-Июн-2016 09:29

[Профиль]  [ЛС] 

shuhrat84

Стаж: 4 года 7 месяцев

Сообщений: 1

дайте пожалуйста скачать этот кино

Создавать темы 20-Дек-2016 20:28

[Профиль]  [ЛС] 
Показать сообщения:    
Ответить на тему

Текущее время: 20-Окт 11:43

Часовой пояс: UTC + 5



Вы не можете начинать темы
Вы не можете отвечать на сообщения
Вы не можете редактировать свои сообщения
Вы не можете удалять свои сообщения
Вы не можете голосовать в опросах
Вы не можете прикреплять файлы к сообщениям
Вы не можете скачивать файлы