Телеигра "Слабое звено" за 8 марта 2002 года с Владимиром Жириновским [2002 г., Игровое шоу, TVRip]

Ответить на тему
 

Джамшид ®

Стаж: 7 лет 7 месяцев

Сообщений: 136

Симпатии: 14

Телеигра "Слабое звено" за 8 марта 2002 года с Владимиром Жириновским
Год выпуска: 2002
Страна: Россия
Жанр: Игровое шоу
Продолжительность: 44 мин. 44 сек
Описание: «Слабое звено» — телевизионная передача-игра, аналог англ. The Weakest Link. Особенностью передачи является удаление одного из игроков в конце каждого игрового раунда, что производится голосованием всех игроков.
Игра появилась на российском телевидении осенью 2001 года и сразу привлекла интерес многих телезрителей, разделившихся на два «лагеря»: одни считали игру чрезмерно жестокой, другие напротив — интересной и захватывающей, раскрывающей в людях самые неприличные качества.
Игра выходила на Первом канале с ведущей Марией Киселёвой до 2 июля 2005 года. Спустя 3 года лицензия на производство собственной версии игры была приобретена Пятым каналом, с декабря 2007 года ведёт игру Николай Фоменко.
Качество: TVRip
Формат: AVI
Видео кодек: DivX
Аудио кодек: MP3
Видео: DivX, 640x480, 29.97fps, 918 kbps
Аудио: MP3, 44100Hz, stereo, 128Kbps

медиа инфо

General
Complete name : D:\Фильмы\Slaboe_Zveno_08-03-2002-Girik.avi
Format : AVI
Format/Info : Audio Video Interleave
File size : 336 MiB
Duration : 44mn 42s
Overall bit rate : 1 052 Kbps
Video
ID : 0
Format : MPEG-4 Visual
Format settings, BVOP : No
Format settings, QPel : No
Format settings, GMC : No warppoints
Format settings, Matrix : Default (H.263)
Codec ID : DX50
Codec ID/Hint : DivX 5
Duration : 44mn 42s
Bit rate : 918 Kbps
Width : 640 pixels
Height : 480 pixels
Display aspect ratio : 4:3
Frame rate : 29.970 fps
Color space : YUV
Chroma subsampling : 4:2:0
Bit depth : 8 bits
Scan type : Progressive
Bits/(Pixel*Frame) : 0.100
Stream size : 293 MiB (87%)
Title : Video
Writing library : DivX 5.2.1 Alpha (UTC 2004-09-08)
Audio
ID : 1
Format : MPEG Audio
Format version : Version 1
Format profile : Layer 3
Mode : Joint stereo
Codec ID : 55
Codec ID/Hint : MP3
Duration : 44mn 42s
Bit rate mode : Variable
Bit rate : 128 Kbps
Channel(s) : 2 channels
Sampling rate : 44.1 KHz
Stream size : 38.6 MiB (11%)
Alignment : Aligned on interleaves
Interleave, duration : 26 ms (0.78 video frame)
Interleave, preload duration : 485 ms
Title : Audio

Скриншоты






Создавать темы 15-Авг-2012 08:49

[Профиль]  [ЛС] 
Показать сообщения:    
Ответить на тему

Текущее время: 15-Дек 13:13

Часовой пояс: UTC + 5



Вы не можете начинать темы
Вы не можете отвечать на сообщения
Вы не можете редактировать свои сообщения
Вы не можете удалять свои сообщения
Вы не можете голосовать в опросах
Вы не можете прикреплять файлы к сообщениям
Вы не можете скачивать файлы