Adobe Photoshop видео уроки СБОРНИК 2 [2012 г.]

Ответить на тему
 

Ruslan1110 ®

Стаж: 6 лет 9 месяцев

Сообщений: 112

Симпатии: 2


Adobe Photoshop видео уроки СБОРНИК 2

Год выпуска: 2012
Язык:

Описание: Здравствуйте. в описание, мне ничего довабить, кроме как от себя написать что тут и к чему.
так что сорй , если что не так. в эти видео уроки входят много всяких уроков.
они были собраны на протяжении 6 лет ... это конечно не все уроки по фотошопу.
но тут достаточно чтобы узнать нужные для вещи..... качайте .. думаю не пожалете.
с Уважением Саидов Р.



Видео кодек: XviD
Видео: AVI Video File - 720 x 480
Аудио: MPEG Audio -118 Kbps

Скриншоты





Медиа инфо.

Video
ID : 0
Format : MPEG-4 Visual
Format profile : [email protected]
Format settings, BVOP : No
Format settings, QPel : No
Format settings, GMC : No warppoints
Format settings, Matrix : Default (H.263)
Codec ID : XVID
Codec ID/Hint : XviD
Duration : 2mn 37s
Bit rate : 228 Kbps
Width : 720 pixels
Height : 480 pixels
Display aspect ratio : 3:2
Frame rate : 25.000 fps
Standard : NTSC
Color space : YUV
Chroma subsampling : 4:2:0
Bit depth : 8 bits
Scan type : Progressive
Compression mode : Lossy
Bits/(Pixel*Frame) : 0.026
Stream size : 4.28 MiB (64%)
Writing library : XviD 1.2.1 (UTC 2008-12-04)
Audio
ID : 1
Format : MPEG Audio
Format version : Version 1
Format profile : Layer 3
Mode : Joint stereo
Mode extension : MS Stereo
Codec ID : 55
Codec ID/Hint : MP3
Duration : 2mn 37s
Bit rate mode : Variable
Bit rate : 118 Kbps
Channel(s) : 2 channels
Sampling rate : 44.1 KHz
Compression mode : Lossy
Stream size : 2.21 MiB (33%)
Alignment : Aligned on interleaves
Interleave, duration : 26 ms (0.65 video frame)
Interleave, preload duration : 530 ms
ССЫЛКА НА Adobe Photoshop видео уроки СБОРНИК 1

Я НЕ АВТОР ВИДЕО УРОКОВ. А ЛИШЬ АВТОР РАЗДАЧИ!!! И ПОСТЕРА! НЕ СУДИТЕ ПО ПОСТЕРУ, НЕ ДУМАЙТЕ, ЧТО Я АВТОР ЭТИХ УРОКОВ ТУТ СБОРНИК!
ЛЮДИ ИЗВИНИТЕ ЗА ИСЧЕЗНАВЕНИЯ ИЗ САЙТА ! НАЧНУ РАЗДАВАТЬ ДАЙ БОГ С САМОГО НАЧАЛА АПРЕЛЯ С ПЕРВЫХ ДНЕЙ МОЖНО СКАЗАТЬ ! СПАСИБО ЗА ТЕРПЕНИЕ! НЕ ДОЛГО ОСТАЛОСЬ ЖДАТЬ РАЗДАЧИ НАРОД !


Последний раз редактировалось: Ruslan1110 (2013-03-04 00:07), всего редактировалось 3 раз(а)

Создавать темы 16-Авг-2012 23:01

[Профиль]  [ЛС] 

Ruslan1110 ®

Стаж: 6 лет 9 месяцев

Сообщений: 112

Симпатии: 2

ЛЮДИ РАЗДАЧА БУДЕТ ВЕЧЕРОМ !!! В 7:30 НАЧНУ !!! И ДАМ СКОРОСТЬ НА ПОЛНУЮ !!!! СПАСИБО ЗА ВНИМАНИЕ !

Создавать темы 17-Авг-2012 14:10

[Профиль]  [ЛС] 

Zjar

Стаж: 5 лет 7 месяцев

Сообщений: 80

качество чу-чуть плохая, а так можно понять. спасибо!!!

Создавать темы 18-Авг-2012 22:27

[Профиль]  [ЛС] 

Ruslan1110 ®

Стаж: 6 лет 9 месяцев

Сообщений: 112

Симпатии: 2

качество чу-чуть плохая, а так можно понять. спасибо!!!
всегда пожалуйста !

Создавать темы 19-Авг-2012 12:43

[Профиль]  [ЛС] 

NepsteR

Стаж: 5 лет 5 месяцев

Сообщений: 113

Симпатии: 1

Ruslan1110, Спасибо)

Создавать темы 19-Авг-2012 12:44

[Профиль]  [ЛС] 

Ruslan1110 ®

Стаж: 6 лет 9 месяцев

Сообщений: 112

Симпатии: 2

Ruslan1110, Спасибо)
ВСЕГДА ПОЖАЛУЙСТА . ПОЛЬЗУЙТЕСЬ НА ЗДОРОВЬЕ !

Создавать темы 19-Авг-2012 14:43

[Профиль]  [ЛС] 

Jokero

Стаж: 6 лет 4 месяца

Сообщений: 176

Симпатии: 4

ну и качество , фуууу

Создавать темы 19-Авг-2012 20:38

[Профиль]  [ЛС] 

Ruslan1110 ®

Стаж: 6 лет 9 месяцев

Сообщений: 112

Симпатии: 2

ну и качество , фуууу
это тебе не фильм же в HD формате ! а всего лишь видео уроки ! тут качество лучше чем на 1-ой части ! ну не нравится не качай желания твое ! я не заставляю ! кто хочет тот качает ! знают же что качают ! на скринах все показано !

Создавать темы 20-Авг-2012 12:09

[Профиль]  [ЛС] 

deemoon03

Стаж: 4 года 11 месяцев

Сообщений: 58

это курс для чайников,тут в основном азы. а есть более продвинутые уроки?

Создавать темы 24-Сен-2012 12:14

[Профиль]  [ЛС] 

kuviCk

Стаж: 4 года 1 месяц

Сообщений: 5

Раздачу нужно Руся)

Создавать темы 15-Ноя-2013 16:36

[Профиль]  [ЛС] 
Показать сообщения:    
Ответить на тему

Текущее время: 24-Авг 10:05

Часовой пояс: UTC + 5



Вы не можете начинать темы
Вы не можете отвечать на сообщения
Вы не можете редактировать свои сообщения
Вы не можете удалять свои сообщения
Вы не можете голосовать в опросах
Вы не можете прикреплять файлы к сообщениям
Вы не можете скачивать файлы