WWE Friday Night Smackdown 10/08/2012 [2012 г., Реслинг, HDTV]

Ответить на тему
 

Спартанец ®

Стаж: 5 лет 9 месяцев

Сообщений: 361

WWE Friday Night Smackdown 10/08/2012
Год выпуска: 2012
Вид спорта: Реслинг
Участники: Зведы WWE
Продолжительность: 01.26.04
Комментарий: Профессиональный (многоголосый, закадровый)
Язык комментариев: Русский
Описание: Еженедельный выпуск WWE Friday Night Smackdown. Выпуск от 10-го августа 2012 года
Качество: HDTV
Формат: Mр4
Видео кодек: х264\AVC
Аудио кодек: AAC
Видео: MPEG4, Video, (H264), 720x406, 29.97fps, 1 399 Kbps
Аудио: MPEG4, Audio, 44100Hz, stereo, 1411kbps, 128 Kbps

Скриншоты



Кард

Sin Cara vs. Cody Rhodes
Christian vc. Antonio Cesaro
Randy Orton vs. Jack Swagger
Jinder Mahal in action
The Prime Time Players vs. Epico and Primo(WWE Tag Team Title #1 Contendership Match)
Rey Mysterio vs. The Miz

МедиаИнфо

General
Format : MPEG-4
Format profile : Base Media
Codec ID : isom
File size : 940 MiB
Duration : 1h 26mn
Overall bit rate mode : Variable
Overall bit rate : 1 528 Kbps
Encoded date : UTC 2012-08-10 11:26:51
Tagged date : UTC 2012-08-10 11:26:51
Writing application : Yamb 2.1.0.0 [http://yamb.unite-video.com]
Video
ID : 1
Format : AVC
Format/Info : Advanced Video Codec
Format profile : [email protected]
Format settings, CABAC : Yes
Format settings, ReFrames : 5 frames
Codec ID : avc1
Codec ID/Info : Advanced Video Coding
Duration : 1h 25mn
Bit rate : 1 399 Kbps
Maximum bit rate : 7 005 Kbps
Width : 720 pixels
Height : 406 pixels
Display aspect ratio : 16:9
Frame rate mode : Constant
Frame rate : 29.970 fps
Color space : YUV
Chroma subsampling : 4:2:0
Bit depth : 8 bits
Scan type : Progressive
Bits/(Pixel*Frame) : 0.160
Stream size : 859 MiB (91%)
Writing library : x264 core 125 r2200 999b753
Encoding settings : cabac=1 / ref=5 / deblock=1:0:0 / analyse=0x3:0x113 / me=umh / subme=8 / psy=1 / psy_rd=1.00:0.00 / mixed_ref=1 / me_range=16 / chroma_me=1 / trellis=1 / 8x8dct=1 / cqm=0 / deadzone=21,11 / fast_pskip=1 / chroma_qp_offset=-2 / threads=12 / lookahead_threads=2 / sliced_threads=0 / nr=0 / decimate=1 / interlaced=0 / bluray_compat=0 / constrained_intra=0 / bframes=3 / b_pyramid=2 / b_adapt=2 / b_bias=0 / direct=3 / weightb=1 / open_gop=0 / weightp=2 / keyint=250 / keyint_min=25 / scenecut=40 / intra_refresh=0 / rc_lookahead=50 / rc=crf / mbtree=1 / crf=24.0 / qcomp=0.60 / qpmin=0 / qpmax=69 / qpstep=4 / ip_ratio=1.40 / aq=1:1.00
Encoded date : UTC 2012-08-10 16:12:13
Tagged date : UTC 2012-08-10 11:27:49
Matrix coefficients : BT.709-5, BT.1361, IEC 61966-2-4 709, SMPTE RP177
Audio
ID : 2
Format : AAC
Format/Info : Advanced Audio Codec
Format profile : LC
Codec ID : 40
Duration : 1h 26mn
Bit rate mode : Variable
Bit rate : 128 Kbps
Maximum bit rate : 204 Kbps
Channel(s) : 2 channels
Channel positions : Front: L R
Sampling rate : 44.1 KHz
Compression mode : Lossy
Stream size : 78.6 MiB (8%)
Encoded date : UTC 2012-08-10 11:27:35
Tagged date : UTC 2012-08-10 11:27:49

Создавать темы 19-Авг-2012 23:35

[Профиль]  [ЛС] 

Ala

Стаж: 6 лет 7 месяцев

Сообщений: 45

Наконецто!!!

Создавать темы 20-Авг-2012 11:27

[Профиль]  [ЛС] 

Kroys

Стаж: 6 лет 1 месяц

Сообщений: 187

Симпатии: 1

Спартанец Здарова!)) а Саммер Слэм будет?

Создавать темы 20-Авг-2012 18:39

[Профиль]  [ЛС] 

Спартанец ®

Стаж: 5 лет 9 месяцев

Сообщений: 361

Привет ) будет, все будет )

Создавать темы 20-Авг-2012 21:48

[Профиль]  [ЛС] 

Kroys

Стаж: 6 лет 1 месяц

Сообщений: 187

Симпатии: 1

посоветуйте какой лучше качать :) за 6,10,13 или 17 число ?

Создавать темы 21-Авг-2012 01:36

[Профиль]  [ЛС] 

nikita

Стаж: 7 лет 1 месяц

Сообщений: 82

Симпатии: 4

посоветуйте какой лучше качать :) за 6,10,13 или 17 число ?
ну ты сам посмори какие бои тебе интересны те и скачай,я лично за 17скачивал.норм.бои

Создавать темы 21-Авг-2012 08:06

[Профиль]  [ЛС] 

Emil_Safa

Стаж: 5 лет 5 месяцев

Сообщений: 102

Пфф я каждый релиз Спартанца качаю,Спасибо Спартанец!

Создавать темы 21-Авг-2012 11:36

[Профиль]  [ЛС] 

Спартанец ®

Стаж: 5 лет 9 месяцев

Сообщений: 361

Не за что :) Каждый релиз можно качать, если на харде место есть лишнее. А может и не быть его )

Создавать темы 21-Авг-2012 13:34

[Профиль]  [ЛС] 

Kroys

Стаж: 6 лет 1 месяц

Сообщений: 187

Симпатии: 1

да я бы качал каждый , но вот хард обижает меня :(

Создавать темы 21-Авг-2012 14:30

[Профиль]  [ЛС] 

Emil_Safa

Стаж: 5 лет 5 месяцев

Сообщений: 102

Cиды раздайте доканца не уходите!

Создавать темы 26-Авг-2012 12:38

[Профиль]  [ЛС] 
Показать сообщения:    
Ответить на тему

Текущее время: 19-Ноя 21:18

Часовой пояс: UTC + 5



Вы не можете начинать темы
Вы не можете отвечать на сообщения
Вы не можете редактировать свои сообщения
Вы не можете удалять свои сообщения
Вы не можете голосовать в опросах
Вы не можете прикреплять файлы к сообщениям
Вы не можете скачивать файлы