WWE Monday Night Raw 13/08/2012 [2012 г., Реслинг, HDTV]

Ответить на тему
 

Спартанец ®

Стаж: 5 лет 7 месяцев

Сообщений: 361

WWE Monday Night Raw 13/08/2012
Год выпуска: 2012
Вид спорта: Реслинг
Участники: Зведы WWE
Продолжительность: 02.09.05
Комментарий: Профессиональный (многоголосый, закадровый)
Язык комментариев: Русский
Описание: Еженедельный выпуск Monday Night Raw. Выпуск от 13-го августа 2012 года.
Качество: HDTV
Формат: Mр4
Видео кодек: х264\AVC
Аудио кодек: AAC
Видео: MPEG4, Video, (H264), 720x406, 29.97fps, 1 488 Kbps
Аудио: MPEG4, Audio, 44100Hz, stereo, 1411kbps, 128 Kbps

Кард

JTG vs. Ryback
Heath Slater vs. R-Truth
Sin Cara vs. Tensai
Chris Jericho vs. The Miz vs. Dolph Ziggler
Kaitlyn and Layla vs. Beth Phoenix and Natalya
Big Show and Daniel Bryan vs. John Cena and CM Punk
Damien Sandow vs. Christian

Скриншоты



МедиаИнфо

General
Format : MPEG-4
Format profile : Base Media
Codec ID : isom
File size : 1.46 GiB
Duration : 2h 9mn
Overall bit rate mode : Variable
Overall bit rate : 1 620 Kbps
Encoded date : UTC 2012-08-13 18:13:32
Tagged date : UTC 2012-08-13 18:13:32
Writing application : Yamb 2.1.0.0 [http://yamb.unite-video.com]
Video
ID : 1
Format : AVC
Format/Info : Advanced Video Codec
Format profile : [email protected]
Format settings, CABAC : Yes
Format settings, ReFrames : 5 frames
Codec ID : avc1
Codec ID/Info : Advanced Video Coding
Duration : 2h 9mn
Bit rate : 1 488 Kbps
Maximum bit rate : 8 648 Kbps
Width : 720 pixels
Height : 406 pixels
Display aspect ratio : 16:9
Frame rate mode : Constant
Frame rate : 29.970 fps
Color space : YUV
Chroma subsampling : 4:2:0
Bit depth : 8 bits
Scan type : Progressive
Bits/(Pixel*Frame) : 0.170
Stream size : 1.34 GiB (92%)
Writing library : x264 core 125 r2208 d9d2288
Encoding settings : cabac=1 / ref=5 / deblock=1:0:0 / analyse=0x3:0x113 / me=umh / subme=8 / psy=1 / psy_rd=1.00:0.00 / mixed_ref=1 / me_range=16 / chroma_me=1 / trellis=1 / 8x8dct=1 / cqm=0 / deadzone=21,11 / fast_pskip=1 / chroma_qp_offset=-2 / threads=12 / lookahead_threads=2 / sliced_threads=0 / nr=0 / decimate=1 / interlaced=0 / bluray_compat=0 / constrained_intra=0 / bframes=3 / b_pyramid=2 / b_adapt=2 / b_bias=0 / direct=3 / weightb=1 / open_gop=0 / weightp=2 / keyint=250 / keyint_min=25 / scenecut=40 / intra_refresh=0 / rc_lookahead=50 / rc=crf / mbtree=1 / crf=24.0 / qcomp=0.60 / qpmin=0 / qpmax=69 / qpstep=4 / ip_ratio=1.40 / aq=1:1.00
Encoded date : UTC 2012-08-14 07:29:09
Tagged date : UTC 2012-08-13 18:14:49
Matrix coefficients : BT.709-5, BT.1361, IEC 61966-2-4 709, SMPTE RP177
Audio
ID : 2
Format : AAC
Format/Info : Advanced Audio Codec
Format profile : LC
Codec ID : 40
Duration : 2h 9mn
Bit rate mode : Variable
Bit rate : 128 Kbps
Maximum bit rate : 156 Kbps
Channel(s) : 2 channels
Channel positions : Front: L R
Sampling rate : 44.1 KHz
Compression mode : Lossy
Stream size : 118 MiB (8%)
Encoded date : UTC 2012-08-13 18:14:45
Tagged date : UTC 2012-08-13 18:14:49


Последний раз редактировалось: Спартанец (2012-08-21 13:33), всего редактировалось 1 раз

Создавать темы 19-Авг-2012 23:45

[Профиль]  [ЛС] 

NodirAgenT

Стаж: 6 лет 5 месяцев

Сообщений: 204

JTG vs. Ryback
Heath Slater vs. R-Truth
Sin Cara vs. Tensai
Chris Jericho vs. The Miz vs. Dolph Ziggler
Kaitlyn and Layla vs. Beth Phoenix and Natalya
Big Show and Daniel Bryan vs. John Cena and CM Punk
Damien Sandow vs. Christian

_________________
Подпись отключена за нарушение правил форума

Создавать темы 21-Авг-2012 09:25

[Профиль]  [ЛС] 

Anicorn

Стаж: 5 лет 2 месяца

Сообщений: 51

Big Show and Daniel Bryan vs. John Cena and CM Punk
Можно было бы скачать только ради этого боя!

Создавать темы 21-Авг-2012 11:42

[Профиль]  [ЛС] 

Спартанец ®

Стаж: 5 лет 7 месяцев

Сообщений: 361

все, вписал )

Создавать темы 21-Авг-2012 13:33

[Профиль]  [ЛС] 

Vovo4ka

Стаж: 6 лет 2 месяца

Сообщений: 160

Симпатии: 11

А когда Summerslam новый появится?

Создавать темы 21-Авг-2012 18:36

[Профиль]  [ЛС] 

Спартанец ®

Стаж: 5 лет 7 месяцев

Сообщений: 361

Скоро, ждите

Создавать темы 21-Авг-2012 19:37

[Профиль]  [ЛС] 

The Game

Стаж: 5 лет 6 месяцев

Сообщений: 80

Симпатии: 1

Ждём но давай по быстрее всем нам интересно

Создавать темы 21-Авг-2012 21:36

[Профиль]  [ЛС] 

Спартанец ®

Стаж: 5 лет 7 месяцев

Сообщений: 361

по быстрее только у кошек, игрок )) И так стараюсь по быстрее. Завтра загружу уже наверное.

Создавать темы 21-Авг-2012 22:34

[Профиль]  [ЛС] 

Vovo4ka

Стаж: 6 лет 2 месяца

Сообщений: 160

Симпатии: 11

Супер. Будем Ждать

Создавать темы 22-Авг-2012 00:57

[Профиль]  [ЛС] 

Emil_Safa

Стаж: 5 лет 3 месяца

Сообщений: 102

Cиды раздайте доканца не уходите! ca

Создавать темы 26-Авг-2012 12:39

[Профиль]  [ЛС] 
Показать сообщения:    
Ответить на тему

Текущее время: 20-Сен 23:22

Часовой пояс: UTC + 5



Вы не можете начинать темы
Вы не можете отвечать на сообщения
Вы не можете редактировать свои сообщения
Вы не можете удалять свои сообщения
Вы не можете голосовать в опросах
Вы не можете прикреплять файлы к сообщениям
Вы не можете скачивать файлы