WWE Friday Night Smackdown 17/08/2012 [2012 г., Реслинг, HDTV]

Ответить на тему
 

Спартанец ®

Стаж: 5 лет 10 месяцев

Сообщений: 361

WWE Friday Night Smackdown 17/08/2012

Год выпуска: 2012
Вид спорта: Реслинг
Участники: Зведы WWE
Продолжительность: 01.22.42
Комментарий: Профессиональный (многоголосый, закадровый)
Язык комментариев: Русский
Описание: Еженедельный выпуск WWE Friday Night Smackdown. Выпуск от 17-го августа 2012 года
Качество: HDTV
Формат: Mр4
Видео кодек: х264\AVC
Аудио кодек: AAC
Видео: MPEG4, Video, (H264), 704x400, 29.97fps, 1 330 Kbps
Аудио: MPEG4, Audio, 44100Hz, stereo, 1411kbps, 128 Kbps

Кард

Rey Mysterio and Sin Cara vs. The Miz and Cody Rhodes
Curt Hawkins and Tyler Reks vs. 2 Jobbers
Kaitlyn vs. Eve Torres
Daniel Bryan vs. Randy Orton
Antonio Cesaro vs. Zack Ryder
Alberto Del Rio vs. Chris Jericho

Скриншоты



МедиаИнфо

General
Format : MPEG-4
Format profile : Base Media
Codec ID : isom
File size : 903 MiB
Duration : 1h 22mn
Overall bit rate mode : Variable
Overall bit rate : 1 527 Kbps
Encoded date : UTC 2012-08-17 14:19:50
Tagged date : UTC 2012-08-17 14:19:50
Writing application : Yamb 2.1.0.0 [http://yamb.unite-video.com]
Video
ID : 1
Format : AVC
Format/Info : Advanced Video Codec
Format profile : [email protected]
Format settings, CABAC : Yes
Format settings, ReFrames : 2 frames
Codec ID : avc1
Codec ID/Info : Advanced Video Coding
Duration : 1h 22mn
Source duration : 1h 22mn
Bit rate : 1 330 Kbps
Nominal bit rate : 1 400 Kbps
Maximum bit rate : 4 576 Kbps
Width : 704 pixels
Height : 400 pixels
Display aspect ratio : 16:9
Frame rate mode : Constant
Frame rate : 29.970 fps
Color space : YUV
Chroma subsampling : 4:2:0
Bit depth : 8 bits
Scan type : Progressive
Bits/(Pixel*Frame) : 0.158
Stream size : 787 MiB (87%)
Source stream size : 825 MiB
Writing library : x264 core 120 r2120 0c7dab9
Encoding settings : cabac=1 / ref=2 / deblock=0:0:0 / analyse=0x3:0x113 / me=dia / subme=7 / psy=1 / psy_rd=1.00:0.00 / mixed_ref=0 / me_range=16 / chroma_me=0 / trellis=1 / 8x8dct=1 / cqm=0 / deadzone=21,11 / fast_pskip=1 / chroma_qp_offset=-2 / threads=6 / sliced_threads=0 / nr=0 / decimate=0 / interlaced=0 / bluray_compat=0 / constrained_intra=0 / bframes=2 / b_pyramid=0 / b_adapt=0 / b_bias=0 / direct=0 / weightb=0 / open_gop=0 / weightp=0 / keyint=500 / keyint_min=100 / scenecut=40 / intra_refresh=0 / rc=abr / mbtree=0 / bitrate=1400 / ratetol=1.0 / qcomp=0.60 / qpmin=0 / qpmax=69 / qpstep=4 / ip_ratio=1.40 / pb_ratio=1.30 / aq=1:1.00
Tagged date : UTC 2012-08-17 14:21:36
Audio
ID : 2
Format : AAC
Format/Info : Advanced Audio Codec
Format profile : LC
Codec ID : 40
Duration : 1h 22mn
Bit rate mode : Variable
Bit rate : 128 Kbps
Maximum bit rate : 162 Kbps
Channel(s) : 2 channels
Channel positions : Front: L R
Sampling rate : 44.1 KHz
Compression mode : Lossy
Stream size : 75.7 MiB (8%)
Encoded date : UTC 2012-08-17 14:21:32
Tagged date : UTC 2012-08-17 14:21:36

Создавать темы 19-Авг-2012 23:56

[Профиль]  [ЛС] 

The Game

Стаж: 5 лет 8 месяцев

Сообщений: 80

Симпатии: 1

Наконец спс Спартанец,

Создавать темы 20-Авг-2012 20:58

[Профиль]  [ЛС] 

The Game

Стаж: 5 лет 8 месяцев

Сообщений: 80

Симпатии: 1

SummerSlam когда будет

Создавать темы 20-Авг-2012 21:02

[Профиль]  [ЛС] 

Спартанец ®

Стаж: 5 лет 10 месяцев

Сообщений: 361

на этой неделе

Создавать темы 20-Авг-2012 21:48

[Профиль]  [ЛС] 
Показать сообщения:    
Ответить на тему

Текущее время: 16-Дек 12:16

Часовой пояс: UTC + 5



Вы не можете начинать темы
Вы не можете отвечать на сообщения
Вы не можете редактировать свои сообщения
Вы не можете удалять свои сообщения
Вы не можете голосовать в опросах
Вы не можете прикреплять файлы к сообщениям
Вы не можете скачивать файлы