Мстители / The Avengers (Джосс Уидон) [2012 г., фантастика, боевик, приключения, DVDRip] Л1

Страницы :  1, 2  След.

Ответить на тему
 

vadmin ®

Стаж: 7 лет 1 месяц

Сообщений: 70

Симпатии: 13

--Мстители / The Avengers-- --Год выпуска: 2012
Страна: США
Жанр: фантастика, боевик, приключения
Продолжительность: 02:17:04
Перевод: Любительский (одноголосый) [zamez]--Режиссер: Джосс Уидон--В ролях: Роберт Дауни мл., Крис Эванс, Марк Руффало, Крис Хемсворт, Скарлетт Йоханссон, Джереми Реннер, Том Хиддлстон, Сэмюэл Л. Джексон, Кларк Грегг, Коби Смолдерс--Описание: Локи, сводный брат Тора, возвращается, и в этот раз он не один. Земля на грани порабощения, и только лучшие из лучших могут спасти человечество. Ник Фьюри, глава международной организации Щ. И. Т., собирает выдающихся поборников справедливости и добра, чтобы отразить атаку. Под предводительством Капитана Америки Железный Человек, Тор, Невероятный Халк, Хоукай и Чёрная Вдова вступают в войну с захватчиком.--Качество: DVDRip
Формат: AVI
Видео кодек: XviD
Аудио кодек: AC3
Видео: 1862 kb/s, 720x384
Аудио: AC3, 384 kb/s (6 ch)--

MI

Format                           : AVI
Format/Info                      : Audio Video Interleave
Format profile                   : OpenDML
File size                        : 2.16 GiB
Duration                         : 2h 17mn
Overall bit rate                 : 2 254 Kbps
Movie name                       : The Avengers
Director                         : --SCHUMAHER--
Genre                            : Fantasy
Writing application              : VirtualDubMod 1.5.10.2 (build 2540/release)
Original source form/Name        : Anime
Video
ID                               : 0
Format                           : MPEG-4 Visual
Format profile                   : [email protected]
Format settings, BVOP            : No
Format settings, QPel            : No
Format settings, GMC             : No warppoints
Format settings, Matrix          : Default (H.263)
Codec ID                         : XVID
Codec ID/Hint                    : XviD
Duration                         : 2h 17mn
Bit rate                         : 1 857 Kbps
Width                            : 720 pixels
Height                           : 384 pixels
Display aspect ratio             : 1.875
Frame rate                       : 25.000 fps
Color space                      : YUV
Chroma subsampling               : 4:2:0
Bit depth                        : 8 bits
Scan type                        : Progressive
Bits/(Pixel*Frame)               : 0.269
Stream size                      : 1.78 GiB (82%)
Writing library                  : XviD 1.1.2 (UTC 2006-11-01)
Audio
ID                               : 1
Format                           : AC-3
Format/Info                      : Audio Coding 3
Mode extension                   : CM (complete main)
Codec ID                         : 2000
Duration                         : 2h 17mn
Bit rate mode                    : Constant
Bit rate                         : 384 Kbps
Channel(s)                       : 6 channels
Channel positions                : Front: L C R, Side: L R, LFE
Sampling rate                    : 48.0 KHz
Stream size                      : 376 MiB (17%)
Alignment                        : Split accross interleaves
Interleave, duration             : 40 ms (1.00 video frame)
Interleave, preload duration     : 500 ms

Скриншоты



Создавать темы 20-Авг-2012 14:26

[Профиль]  [ЛС] 

mp1988

Стаж: 6 лет 8 месяцев

Сообщений: 607

Симпатии: 971

за релиз спасибо, но лицензия через неделю

Создавать темы 20-Авг-2012 14:28

[Профиль]  [ЛС] 

ФеникC

Стаж: 5 лет 6 месяцев

Сообщений: 19

Симпатии: 1

ыыыыы

Создавать темы 20-Авг-2012 14:29

[Профиль]  [ЛС] 

Yumi

Стаж: 7 лет 3 месяца

Сообщений: 61

Спасибо!*

Создавать темы 20-Авг-2012 21:46

[Профиль]  [ЛС] 

vadmin ®

Стаж: 7 лет 1 месяц

Сообщений: 70

Симпатии: 13

раздача когда?
Ну как бы уже давно раздается.

Создавать темы 21-Авг-2012 02:32

[Профиль]  [ЛС] 

Whitejin

Стаж: 6 лет 5 месяцев

Сообщений: 175

Симпатии: 11

Буду качать ) спасибо

Создавать темы 21-Авг-2012 09:22

[Профиль]  [ЛС] 

Марат_Т.А

Стаж: 6 лет 7 месяцев

Сообщений: 17

за релиз спасибо, но лицензия через неделю
Фильм выходит на DVD сегодня , лицензия так что не через неделю должна выйти , вот она уже вышла

Создавать темы 21-Авг-2012 09:27

[Профиль]  [ЛС] 

kenparck

Стаж: 5 лет 7 месяцев

Сообщений: 10

Скорость, где ты??!?
ПОМОГИТЕ СКАЧАТЬ! А Я ПОМОГУ РАЗДОВАТЬ!!

Создавать темы 21-Авг-2012 11:55

[Профиль]  [ЛС] 

boy200007

Стаж: 6 лет 10 месяцев

Сообщений: 74

уже скачал

Создавать темы 21-Авг-2012 13:05

[Профиль]  [ЛС] 

Дeдушка

Стаж: 5 лет 1 месяц

Сообщений: 2

Симпатии: 1

м качество!

Создавать темы 21-Авг-2012 13:19

[Профиль]  [ЛС] 

Taa6969

Стаж: 6 лет 2 месяца

Сообщений: 123

Симпатии: 2

скорость 0

Создавать темы 21-Авг-2012 13:27

[Профиль]  [ЛС] 

Taa6969

Стаж: 6 лет 2 месяца

Сообщений: 123

Симпатии: 2

vadmin, скорость дай

Создавать темы 21-Авг-2012 13:30

[Профиль]  [ЛС] 

Сообщения из этой темы были выделены в отдельный топик Неурядица из Мстители / The Avengers Перевод: Любительский (одноголосый) [zamez]

Mixer City

Создавать темы 21-Авг-2012 14:35

 

Mixer City

Стаж: 6 лет 9 месяцев

Сообщений: 754

Симпатии: 63

Не смотря на то, что размеры с этим релизом: http://tas-ix.net/viewtopic.php?t=52210 одинаковы, тут - одноголосый перевод, там - дубляж.

Создавать темы 21-Авг-2012 14:36

[Профиль]  [ЛС] 

Shoaziz

Стаж: 5 лет 3 месяца

Сообщений: 113

Симпатии: 8

Спасибоо вам друзья за релиз!!

Создавать темы 21-Авг-2012 15:31

[Профиль]  [ЛС] 
Показать сообщения:    
Ответить на тему

Текущее время: 26-Сен 16:05

Часовой пояс: UTC + 5



Вы не можете начинать темы
Вы не можете отвечать на сообщения
Вы не можете редактировать свои сообщения
Вы не можете удалять свои сообщения
Вы не можете голосовать в опросах
Вы не можете прикреплять файлы к сообщениям
Вы не можете скачивать файлы