WWE SummerSlam 2012 [2012 г., Реслинг, HDTVRip]

Страницы :  1, 2, 3  След.

Ответить на тему
 

Спартанец ®

Стаж: 5 лет 7 месяцев

Сообщений: 361

WWE SummerSlam 2012- Год выпуска: 2012-Вид спорта: Реслинг
Участники: Звезды WWE-Продолжительность: 02.49.22-Комментарий: Профессиональный (многоголосый, закадровый)
Язык комментариев: Русский
Описание: Новое РРV WWE SummerSlam 2012-Качество: HDTVRip
Формат: Mр4
Видео кодек: х264\AVC
Аудио кодек: AAC
Видео: MPEG4, Video, (H264), 704x400, 29.97fps, 1 400 Kbps
Аудио: MPEG4, Audio, 44100Hz, stereo, 1411kbps, 128 Kbps

Кард

Скриншоты



МедиаИнфо

General
Format : MPEG-4
Format profile : Base Media
Codec ID : isom
File size : 1.81 GiB
Duration : 2h 49mn
Overall bit rate mode : Variable
Overall bit rate : 1 532 Kbps
Encoded date : UTC 2012-08-19 16:42:59
Tagged date : UTC 2012-08-19 16:42:59
Writing application : Yamb 2.1.0.0 [http://yamb.unite-video.com]
Video
ID : 1
Format : AVC
Format/Info : Advanced Video Codec
Format profile : [email protected]
Format settings, CABAC : Yes
Format settings, ReFrames : 2 frames
Codec ID : avc1
Codec ID/Info : Advanced Video Coding
Duration : 2h 49mn
Source duration : 2h 49mn
Bit rate : 1 400 Kbps
Maximum bit rate : 4 334 Kbps
Width : 704 pixels
Height : 400 pixels
Display aspect ratio : 16:9
Frame rate mode : Constant
Frame rate : 29.970 fps
Color space : YUV
Chroma subsampling : 4:2:0
Bit depth : 8 bits
Scan type : Progressive
Bits/(Pixel*Frame) : 0.166
Stream size : 1.58 GiB (87%)
Source stream size : 1.66 GiB
Writing library : x264 core 120 r2120 0c7dab9
Encoding settings : cabac=1 / ref=2 / deblock=0:0:0 / analyse=0x3:0x113 / me=dia / subme=7 / psy=1 / psy_rd=1.00:0.00 / mixed_ref=0 / me_range=16 / chroma_me=0 / trellis=1 / 8x8dct=1 / cqm=0 / deadzone=21,11 / fast_pskip=1 / chroma_qp_offset=-2 / threads=6 / sliced_threads=0 / nr=0 / decimate=0 / interlaced=0 / bluray_compat=0 / constrained_intra=0 / bframes=2 / b_pyramid=0 / b_adapt=0 / b_bias=0 / direct=0 / weightb=0 / open_gop=0 / weightp=0 / keyint=500 / keyint_min=100 / scenecut=40 / intra_refresh=0 / rc=abr / mbtree=0 / bitrate=1400 / ratetol=1.0 / qcomp=0.60 / qpmin=0 / qpmax=69 / qpstep=4 / ip_ratio=1.40 / pb_ratio=1.30 / aq=1:1.00
Tagged date : UTC 2012-08-19 16:46:10
Audio
ID : 2
Format : AAC
Format/Info : Advanced Audio Codec
Format profile : LC
Codec ID : 40
Duration : 2h 49mn
Bit rate mode : Variable
Bit rate : 128 Kbps
Maximum bit rate : 163 Kbps
Channel(s) : 2 channels
Channel positions : Front: L R
Sampling rate : 44.1 KHz
Compression mode : Lossy
Stream size : 155 MiB (8%)
Encoded date : UTC 2012-08-19 16:46:05
Tagged date : UTC 2012-08-19 16:46:10


Последний раз редактировалось: Спартанец (2013-08-27 08:16), всего редактировалось 2 раз(а)

Создавать темы 22-Авг-2012 06:22

[Профиль]  [ЛС] 

The Game

Стаж: 5 лет 6 месяцев

Сообщений: 80

Симпатии: 1

спс Спартанец,

Создавать темы 22-Авг-2012 07:20

[Профиль]  [ЛС] 

nikita

Стаж: 6 лет 11 месяцев

Сообщений: 82

Симпатии: 4

красата большое спасибо

Создавать темы 22-Авг-2012 07:26

[Профиль]  [ЛС] 

Emil_Safa

Стаж: 5 лет 3 месяца

Сообщений: 102

Спартанец спасибо большое,я уежаю через 2 дня приеду надеюсь сиди еще будут)

Создавать темы 22-Авг-2012 08:57

[Профиль]  [ЛС] 

LiX

Стаж: 6 лет 3 месяца

Сообщений: 254

Симпатии: 6

Спасибо! Дождались! Когда раздача?

Создавать темы 22-Авг-2012 09:41

[Профиль]  [ЛС] 

McFLY

Стаж: 5 лет 6 месяцев

Сообщений: 658

Симпатии: 22

Класс!! Нет слов :) СПАААААСИИИИБОООО!!!!!!!! bp

Создавать темы 22-Авг-2012 11:27

[Профиль]  [ЛС] 

NodirAgenT

Стаж: 6 лет 5 месяцев

Сообщений: 204

Список Победителей
Панк
Антонио Сезаро
Кингстон и Ар Труф
Леснар
Шеймус
Крис Джерико
Дениел Брайан
МИЗ

_________________
Подпись отключена за нарушение правил форума

Создавать темы 22-Авг-2012 13:00

[Профиль]  [ЛС] 

Anicorn

Стаж: 5 лет 3 месяца

Сообщений: 51

Спасибо Спартанец. Очень давно ждал Саммер Слэма.

Создавать темы 22-Авг-2012 13:44

[Профиль]  [ЛС] 

Ala

Стаж: 6 лет 5 месяцев

Сообщений: 45

круто pc

Создавать темы 22-Авг-2012 14:01

[Профиль]  [ЛС] 

Спартанец ®

Стаж: 5 лет 7 месяцев

Сообщений: 361

На здоровье парни )) Раздаю всю ночь.

Создавать темы 22-Авг-2012 22:38

[Профиль]  [ЛС] 

nikita

Стаж: 6 лет 11 месяцев

Сообщений: 82

Симпатии: 4

походу у панка до конца его карьеры в рестлинге,не кто не выиграет у него пояс.

Создавать темы 22-Авг-2012 23:03

[Профиль]  [ЛС] 

MaZaHaKa

Стаж: 5 лет 2 месяца

Сообщений: 73

Симпатии: 5

Это ведь все не понастоящемму? Я чет в Raw и smack down некогда крови невидидел!

Создавать темы 22-Авг-2012 23:06

[Профиль]  [ЛС] 

Undertaker

Стаж: 5 лет 8 месяцев

Сообщений: 30

походу у панка до конца его карьеры в рестлинге,не кто не выиграет у него пояс.
результат под спойлер для чего убрали?

Создавать темы 23-Авг-2012 01:21

[Профиль]  [ЛС] 

Anicorn

Стаж: 5 лет 3 месяца

Сообщений: 51

походу у панка до конца его карьеры в рестлинге,не кто не выиграет у него пояс.
Спасибо тебе Огромное Никита!!! Может сразу весь Саммер Слэм Опишешь?

Создавать темы 23-Авг-2012 11:26

[Профиль]  [ЛС] 

nikita

Стаж: 6 лет 11 месяцев

Сообщений: 82

Симпатии: 4

вот выклол ведь человек.
Список Победителей
Панк
Антонио Сезаро
Кингстон и Ар Труф
Леснар
Шеймус
Крис Джерико
Дениел Брайан
МИЗ

Создавать темы 23-Авг-2012 11:43

[Профиль]  [ЛС] 
Показать сообщения:    
Ответить на тему

Текущее время: 21-Сен 21:01

Часовой пояс: UTC + 5



Вы не можете начинать темы
Вы не можете отвечать на сообщения
Вы не можете редактировать свои сообщения
Вы не можете удалять свои сообщения
Вы не можете голосовать в опросах
Вы не можете прикреплять файлы к сообщениям
Вы не можете скачивать файлы