WWE Monday Night Raw 20/08/2012 [2012 г., Реслинг, HDTVRip]

Ответить на тему
 

Спартанец ®

Стаж: 5 лет 7 месяцев

Сообщений: 361

WWE Monday Night Raw 20/08/2012
Год выпуска: 2012
Вид спорта: Реслинг
Участники: Зведы WWE
Продолжительность: 02.20.40
Комментарий: Профессиональный (многоголосый, закадровый)
Язык комментариев: Русский
Описание: Еженедельный выпуск Monday Night Raw. Выпуск от 20-го августа 2012 года
Качество: HDTVRip
Формат: Mр4
Видео кодек: х264\AVC
Аудио кодек: AAC
Видео: MPEG4, Video, (H264), 720x406, 29.97fps, 1 279 Kbps
Аудио: MPEG4, Audio, 44100Hz, stereo, 1411kbps, 128 Kbps

Кард

The Prime Time Players and Cody Rhodes vs. Sin Cara and Kofi Kingston and R-Truth
Ryback vs. two jobbers
Randy Orton vs. Alberto Del Rio
Brodus Clay vs. Damian Sandow
Big Show vs. David Otunga
Kane and Zack Ryder vs. Daniel Bryan and The Miz
Divas Battle Royal
Chris Jericho vs. Dolph Ziggler - Contract vs. Contract

Скриншоты



МедиаИнфо

General
Format : MPEG-4
Format profile : Base Media
Codec ID : isom
File size : 1.38 GiB
Duration : 2h 20mn
Overall bit rate mode : Variable
Overall bit rate : 1 409 Kbps
Encoded date : UTC 2012-08-20 18:01:02
Tagged date : UTC 2012-08-20 18:01:02
Writing application : Yamb 2.1.0.0 [http://yamb.unite-video.com]
Video
ID : 1
Format : AVC
Format/Info : Advanced Video Codec
Format profile : [email protected]
Format settings, CABAC : Yes
Format settings, ReFrames : 5 frames
Codec ID : avc1
Codec ID/Info : Advanced Video Coding
Duration : 2h 20mn
Bit rate : 1 279 Kbps
Maximum bit rate : 8 052 Kbps
Width : 720 pixels
Height : 406 pixels
Display aspect ratio : 16:9
Frame rate mode : Constant
Frame rate : 29.970 fps
Color space : YUV
Chroma subsampling : 4:2:0
Bit depth : 8 bits
Scan type : Progressive
Bits/(Pixel*Frame) : 0.146
Stream size : 1.25 GiB (91%)
Writing library : x264 core 125 r2208 d9d2288
Encoding settings : cabac=1 / ref=5 / deblock=1:0:0 / analyse=0x3:0x113 / me=umh / subme=8 / psy=1 / psy_rd=1.00:0.00 / mixed_ref=1 / me_range=16 / chroma_me=1 / trellis=1 / 8x8dct=1 / cqm=0 / deadzone=21,11 / fast_pskip=1 / chroma_qp_offset=-2 / threads=12 / lookahead_threads=2 / sliced_threads=0 / nr=0 / decimate=1 / interlaced=0 / bluray_compat=0 / constrained_intra=0 / bframes=3 / b_pyramid=2 / b_adapt=2 / b_bias=0 / direct=3 / weightb=1 / open_gop=0 / weightp=2 / keyint=250 / keyint_min=25 / scenecut=40 / intra_refresh=0 / rc_lookahead=50 / rc=crf / mbtree=1 / crf=24.0 / qcomp=0.60 / qpmin=0 / qpmax=69 / qpstep=4 / ip_ratio=1.40 / aq=1:1.00
Encoded date : UTC 2012-08-21 05:08:09
Tagged date : UTC 2012-08-20 18:02:19
Matrix coefficients : BT.709-5, BT.1361, IEC 61966-2-4 709, SMPTE RP177
Audio
ID : 2
Format : AAC
Format/Info : Advanced Audio Codec
Format profile : LC
Codec ID : 40
Duration : 2h 20mn
Bit rate mode : Variable
Bit rate : 128 Kbps
Maximum bit rate : 158 Kbps
Channel(s) : 2 channels
Channel positions : Front: L R
Sampling rate : 44.1 KHz
Compression mode : Lossy
Stream size : 129 MiB (9%)
Encoded date : UTC 2012-08-20 18:02:07
Tagged date : UTC 2012-08-20 18:02:19

Создавать темы 25-Авг-2012 06:58

[Профиль]  [ЛС] 

Emil_Safa

Стаж: 5 лет 3 месяца

Сообщений: 102

Спасибо Спартанец Еще не докачал Ро той недели 5 закачек реслинга стоит)
Если не трудно можете скачать любое одно ППВ годов 2009-2012

Создавать темы 25-Авг-2012 14:05

[Профиль]  [ЛС] 

Frozzen

Стаж: 5 лет 4 месяца

Сообщений: 88

поделитесь скоростью, на 12% застыл(((

Создавать темы 25-Авг-2012 19:15

[Профиль]  [ЛС] 

LiX

Стаж: 6 лет 4 месяца

Сообщений: 254

Симпатии: 6

Это вопрос для тех кто уже смотрел этот выпуск
Ну и что там с Джерико? Он проиграл а потом что? По 2х2 показали только его фиаск и всё pc

Создавать темы 26-Авг-2012 20:05

[Профиль]  [ЛС] 

Vovo4ka

Стаж: 6 лет 2 месяца

Сообщений: 160

Симпатии: 11

А кто знает почему сайт wwe.orca.uz заблокирован?

Создавать темы 26-Авг-2012 21:11

[Профиль]  [ЛС] 

McFLY

Стаж: 5 лет 7 месяцев

Сообщений: 658

Симпатии: 22

Vovo4ka, хз только вчера оттуда музыку скачивал , вроде всё работало. Надо у владельца спросить :)

Создавать темы 26-Авг-2012 22:03

[Профиль]  [ЛС] 

LiX

Стаж: 6 лет 4 месяца

Сообщений: 254

Симпатии: 6

Vovo4ka, McFLY, Наверное потому-что в последнее время никто не заходил!

Создавать темы 27-Авг-2012 06:36

[Профиль]  [ЛС] 

The Game

Стаж: 5 лет 6 месяцев

Сообщений: 80

Симпатии: 1

Спс Спартанец

Создавать темы 27-Авг-2012 15:56

[Профиль]  [ЛС] 

Ala

Стаж: 6 лет 5 месяцев

Сообщений: 45

Спартанец, блин чётко моймал кадр :))) на 3м скрине

Создавать темы 28-Авг-2012 00:08

[Профиль]  [ЛС] 

Emil_Safa

Стаж: 5 лет 3 месяца

Сообщений: 102

Ala,
да я даже не заметил,спасибо Спартанец)

Создавать темы 28-Авг-2012 10:31

[Профиль]  [ЛС] 

McFLY

Стаж: 5 лет 7 месяцев

Сообщений: 658

Симпатии: 22

ХА , кто не видел фильм Супер Майк , гляньте. Там Кевин Нэш играет :) вот это да! Давненько его не видел !!!

Создавать темы 28-Авг-2012 12:50

[Профиль]  [ЛС] 

Спартанец ®

Стаж: 5 лет 7 месяцев

Сообщений: 361

Спартанец, блин чётко моймал кадр :))) на 3м скрине
Cпециально выбирал ))))

Создавать темы 28-Авг-2012 22:59

[Профиль]  [ЛС] 

shad12

Стаж: 5 лет 8 месяцев

Сообщений: 107

Симпатии: 13

ты этл скоково сайта качаеш

Создавать темы 29-Авг-2012 11:11

[Профиль]  [ЛС] 

Спартанец ®

Стаж: 5 лет 7 месяцев

Сообщений: 361

ты этл скоково сайта качаеш
545tv.com

Создавать темы 29-Авг-2012 21:19

[Профиль]  [ЛС] 

Frozzen

Стаж: 5 лет 4 месяца

Сообщений: 88

Спартанец, у тебя не найдутся бои с участием Shown Michels, оч хочется помотреть на него)

Создавать темы 30-Авг-2012 06:34

[Профиль]  [ЛС] 
Показать сообщения:    
Ответить на тему

Текущее время: 25-Сен 23:43

Часовой пояс: UTC + 5



Вы не можете начинать темы
Вы не можете отвечать на сообщения
Вы не можете редактировать свои сообщения
Вы не можете удалять свои сообщения
Вы не можете голосовать в опросах
Вы не можете прикреплять файлы к сообщениям
Вы не можете скачивать файлы