Мстители / The Avengers (Джосс Уидон) [2012 г., фантастика, боевик, BDRip-AVC]

Ответить на тему
 

shub ®

Стаж: 6 лет 10 месяцев

Сообщений: 5

Мстители / The Avengers
Год выпуска: 2012
Страна: США
Жанр: фантастика, боевик
Продолжительность: 2:22:54
Перевод: Профессиональный (полное дублирование)
Режиссер: Джосс Уидон
В ролях: Крис Эванс, Крис Хемсворт, Джереми Реннер, Скарлетт Йоханссон, Роберт Дауни мл., Марк Руффало, Сэмюэл Л. Джексон, Коби Смолдерс, Пол Беттани, Аманда Риджетти и др.
Описание: Локи, сводный брат Тора, возвращается, и в этот раз он не один. Земля на грани порабощения, и только лучшие из лучших могут спасти человечество.
Ник Фьюри, глава международной организации Щ. И. Т., собирает выдающихся поборников справедливости и добра, чтобы отразить атаку. Под предводительством Капитана Америки Железный Человек, Тор, Невероятный Халк, Соколиный глаз и Чёрная Вдова вступают в войну с захватчиком.
Качество: BDRip-AVC
Формат: MP4
Видео кодек: H.264
Аудио кодек: AAC
Видео: 1280x720, 2000 kbps, 23.976 fps
Аудио: 192 kbps, 48.0 KHz, 6 ch

MediaInfo

General
Complete name : M:\Фильмы\HD\Mstiteli.2012.D.BDRip-AVC.mp4
Format : MPEG-4
Format profile : Base Media
Codec ID : isom
File size : 2.15 GiB
Duration : 2h 22mn
Overall bit rate mode : Variable
Overall bit rate : 2 153 Kbps
Movie name : Мстители | The Avengers (2012) BDRip-AVC by shub
Writing application : Lavf52.88.0
Video
ID : 1
Format : AVC
Format/Info : Advanced Video Codec
Format profile : [email protected]
Format settings, CABAC : Yes
Format settings, ReFrames : 3 frames
Codec ID : avc1
Codec ID/Info : Advanced Video Coding
Duration : 2h 22mn
Bit rate : 2 000 Kbps
Width : 1 280 pixels
Height : 720 pixels
Display aspect ratio : 16:9
Frame rate mode : Variable
Frame rate : 23.976 fps
Minimum frame rate : 23.810 fps
Maximum frame rate : 24.390 fps
Color space : YUV
Chroma subsampling : 4:2:0
Bit depth : 8 bits
Scan type : Progressive
Bits/(Pixel*Frame) : 0.091
Stream size : 1.95 GiB (91%)
Writing library : x264 core 110
Encoding settings : cabac=1 / ref=3 / deblock=1:0:0 / analyse=0x3:0x133 / me=hex / subme=7 / psy=1 / psy_rd=1.00:0.00 / mixed_ref=1 / me_range=16 / chroma_me=1 / trellis=1 / 8x8dct=1 / cqm=0 / deadzone=21,11 / fast_pskip=1 / chroma_qp_offset=-2 / threads=6 / sliced_threads=0 / nr=0 / decimate=1 / interlaced=0 / constrained_intra=0 / bframes=3 / b_pyramid=1 / b_adapt=2 / b_bias=0 / direct=3 / weightb=1 / open_gop=0 / weightp=2 / keyint=230 / keyint_min=23 / scenecut=40 / intra_refresh=0 / rc_lookahead=40 / rc=abr / mbtree=1 / bitrate=2000 / ratetol=1.0 / qcomp=0.60 / qpmin=10 / qpmax=51 / qpstep=4 / ip_ratio=1.40 / aq=1:1.00
Audio
ID : 2
Format : AAC
Format/Info : Advanced Audio Codec
Format profile : LC
Codec ID : 40
Duration : 2h 22mn
Bit rate mode : Variable
Bit rate : 192 Kbps
Channel(s) : 6 channels
Channel positions : Front: L C R, Side: L R, LFE
Sampling rate : 48.0 KHz
Compression mode : Lossy
Delay relative to video : 83ms
Stream size : 194 MiB (9%)

Скриншоты

Создавать темы 26-Авг-2012 08:46

[Профиль]  [ЛС] 

Дмитриев

Стаж: 7 лет 5 месяцев

Сообщений: 139

Симпатии: 12

shub, О тоже крутя ;)

Создавать темы 26-Авг-2012 10:51

[Профиль]  [ЛС] 

baburmahmudov36

Стаж: 5 лет 6 месяцев

Сообщений: 141

Симпатии: 4

СПАСИБО ЗА РЕЛИЗ

Создавать темы 28-Авг-2012 02:09

[Профиль]  [ЛС] 

Uzumaki_Naruto

Стаж: 6 лет 9 месяцев

Сообщений: 247

Симпатии: 3

Кто нибудь залейте на 1920x1080,

Создавать темы 28-Авг-2012 02:14

[Профиль]  [ЛС] 

tayfun

Стаж: 5 лет

Сообщений: 1

спс

Создавать темы 04-Дек-2012 20:26

[Профиль]  [ЛС] 

3agpot-danya

Стаж: 4 года 9 месяцев

Сообщений: 2

asd

Создавать темы 18-Мар-2013 19:55

[Профиль]  [ЛС] 

joybek

Стаж: 4 года 5 месяцев

Сообщений: 4

дайте раздачу пожалуйста!

Создавать темы 13-Окт-2013 12:44

[Профиль]  [ЛС] 

SamaR1

Стаж: 4 года 4 месяца

Сообщений: 11

Симпатии: 1

http://img.tas-ix.net/images/2013/1368c9dfa00a3abb1fd048be04ec7b65.jpg
классни кино

Создавать темы 13-Окт-2013 12:45

[Профиль]  [ЛС] 
Показать сообщения:    
Ответить на тему

Текущее время: 20-Ноя 08:37

Часовой пояс: UTC + 5



Вы не можете начинать темы
Вы не можете отвечать на сообщения
Вы не можете редактировать свои сообщения
Вы не можете удалять свои сообщения
Вы не можете голосовать в опросах
Вы не можете прикреплять файлы к сообщениям
Вы не можете скачивать файлы