Большая ржака! (Виталий Москаленко) [2012 г., комедия, DVDRip]

Ответить на тему
 

pasha1995 ®

Стаж: 5 лет 10 месяцев

Сообщений: 17

Большая ржака!
Год выпуска: 2012
Жанр: комедия
Продолжительность: 01:20:13
Режиссер: Виталий Москаленко
В ролях: Сергей Писаренко, Евгений Никишин, Ирина Медведева, Сергей Дорогов, Александр Семчев, Александр Робак, Александра Флоринская, Анна Семенович, Михаил Владимиров, Виктор Добронравов
Описание: В провинциальном городке на местном ТВ прозябают два друга — Ширяев и Молоток, и их коллега — красавица Надя. Все трое мечтают разбогатеть и стать столичными звездами. Неожиданно им в голову приходит идея: устроить реалити-шоу, участники которого должны отыскать золото Колчака. Одержимые жадностью герои шоу пускаются в гонку за кладом на самолетах, поездах и автомобилях. В пути их ждут сумасшедшие приключения, и все они еще не знают главного секрета…
КиноПоиск: 1.635
Премьера (мир): 2 августа 2012
Премьера (РФ): 2 августа 2012
Релиз на DVD: 28 августа 2012
Качество: DVDRip
Формат: MP4
Видео кодек: AVC
Аудио кодек: MP3
Видео: 640x360, 25.000 fps, MPEG4, 450 kbps
Аудио: AAC, 96.0 kbps, 2 ch, 44.1 KHz

Скриншоты



Media Info

General
Complete name : D:\Games\Bolshaya.Rjaka.2012.DVDRip.mp4
Format : MPEG-4
Format profile : Base Media
Codec ID : isom
File size : 314 MiB
Duration : 1h 20mn
Overall bit rate : 548 Kbps
Writing application : Lavf53.5.0
Video
ID : 1
Format : AVC
Format/Info : Advanced Video Codec
Format profile : [email protected]
Format settings, CABAC : Yes
Format settings, ReFrames : 4 frames
Format settings, GOP : M=1, N=41
Codec ID : avc1
Codec ID/Info : Advanced Video Coding
Duration : 1h 20mn
Bit rate mode : Variable
Bit rate : 450 Kbps
Width : 640 pixels
Height : 360 pixels
Display aspect ratio : 16:9
Frame rate mode : Constant
Frame rate : 25.000 fps
Color space : YUV
Chroma subsampling : 4:2:0
Bit depth : 8 bits
Scan type : Progressive
Bits/(Pixel*Frame) : 0.078
Stream size : 256 MiB (81%)
Writing library : x264 core 119
Encoding settings : cabac=1 / ref=4 / deblock=1:0:0 / analyse=0x3:0x113 / me=umh / subme=8 / psy=1 / psy_rd=1.00:0.00 / mixed_ref=1 / me_range=16 / chroma_me=1 / trellis=1 / 8x8dct=1 / cqm=0 / deadzone=21,11 / fast_pskip=1 / chroma_qp_offset=-2 / threads=8 / sliced_threads=0 / nr=0 / decimate=1 / interlaced=0 / bluray_compat=0 / constrained_intra=0 / bframes=3 / b_pyramid=0 / b_adapt=2 / b_bias=0 / direct=3 / weightb=1 / open_gop=0 / weightp=2 / keyint=250 / keyint_min=25 / scenecut=40 / intra_refresh=0 / rc_lookahead=40 / rc=abr / mbtree=1 / bitrate=450 / ratetol=1.0 / qcomp=0.60 / qpmin=10 / qpmax=51 / qpstep=4 / ip_ratio=1.41 / aq=1:1.00
Audio
ID : 2
Format : AAC
Format/Info : Advanced Audio Codec
Format profile : LC
Codec ID : 40
Duration : 1h 20mn
Bit rate mode : Constant
Bit rate : 96.0 Kbps
Channel(s) : 2 channels
Channel positions : Front: L R
Sampling rate : 44.1 KHz
Compression mode : Lossy
Stream size : 55.1 MiB (18%)


Последний раз редактировалось: pasha1995 (2012-08-29 10:06), всего редактировалось 1 раз

Создавать темы 27-Авг-2012 14:57

[Профиль]  [ЛС] 

pasha1995 ®

Стаж: 5 лет 10 месяцев

Сообщений: 17

Проверьте модеры

Создавать темы 29-Авг-2012 09:32

[Профиль]  [ЛС] 

Mixer City

Стаж: 6 лет 11 месяцев

Сообщений: 754

Симпатии: 63

Видео кодек: Другой MPEG4
Напиши название нормального, соответствующего, кодека.

Создавать темы 29-Авг-2012 09:47

[Профиль]  [ЛС] 

pasha1995 ®

Стаж: 5 лет 10 месяцев

Сообщений: 17

Mixer City, вот готово

Создавать темы 29-Авг-2012 10:06

[Профиль]  [ЛС] 

treiser

Стаж: 5 лет 3 месяца

Сообщений: 2

ДАЙТЕ СКОРОСТИ ПЛИЗЗЗЗЗ!!!!!!!!ЗА ФИЛЬМ СПАСИБО!!!

Создавать темы 29-Авг-2012 22:08

[Профиль]  [ЛС] 

dj-talgat

Стаж: 5 лет 10 месяцев

Сообщений: 36

А где источник все на 64% остановились ????

Создавать темы 30-Авг-2012 10:57

[Профиль]  [ЛС] 

treiser

Стаж: 5 лет 3 месяца

Сообщений: 2

нет звука, нет скорости и загрузка остановилась на 64%

Создавать темы 30-Авг-2012 16:16

[Профиль]  [ЛС] 

pasha1995 ®

Стаж: 5 лет 10 месяцев

Сообщений: 17

всё раздаю у меня нэтка вырубилась...

Создавать темы 01-Сен-2012 08:57

[Профиль]  [ЛС] 

pasha1995 ®

Стаж: 5 лет 10 месяцев

Сообщений: 17

pasha1995, Привет. Я только зарегестрировался и не могу разобраться как скачать. Если не затруднит, подскажите.
http://www.utorrent.com/ скачай здесь Торрент...установи...далее .... нажимаешь здесь скачать .... скачаеться файл размером от 10 до 200 КВ(это тореент файл)....после того как он скачаеться ты открываешь его там надо будет выбрать куда сохранить файл(кино,программы,игры....и т.д.)

Создавать темы 01-Сен-2012 16:54

[Профиль]  [ЛС] 

Бахтиер123

Стаж: 5 лет 10 месяцев

Сообщений: 72

Симпатии: 18

Классный фильм когда HDRip будет?

Создавать темы 01-Сен-2012 20:05

[Профиль]  [ЛС] 

pasha1995 ®

Стаж: 5 лет 10 месяцев

Сообщений: 17

Классный фильм когда HDRip будет?
Скоро будет Баха)))

Создавать темы 01-Сен-2012 21:33

[Профиль]  [ЛС] 

i_love_tlv

Стаж: 5 лет 3 месяца

Сообщений: 59

Симпатии: 1

качество зажатое как на iPod

Создавать темы 02-Сен-2012 16:34

[Профиль]  [ЛС] 

Mrblack

Стаж: 6 лет 7 месяцев

Сообщений: 247

Симпатии: 52

Да норм!!

Создавать темы 05-Сен-2012 11:02

[Профиль]  [ЛС] 

shahz

Стаж: 5 лет 9 месяцев

Сообщений: 192

Симпатии: 9

Блин думал нормальное кино. Скачал из за Ирины Медведевой. Думал что-то новое в исполнении «6 кадров». А оказалось совсем наоборот, очень плохой фильм. Кто знает узбекский язык одним словом можно назвать - «бачкана», противная комедия at
Кстати, рейтинг в кинопоиске 1.8 из 10 балов ((.

Создавать темы 25-Фев-2013 23:18

[Профиль]  [ЛС] 
Показать сообщения:    
Ответить на тему

Текущее время: 12-Дек 15:00

Часовой пояс: UTC + 5



Вы не можете начинать темы
Вы не можете отвечать на сообщения
Вы не можете редактировать свои сообщения
Вы не можете удалять свои сообщения
Вы не можете голосовать в опросах
Вы не можете прикреплять файлы к сообщениям
Вы не можете скачивать файлы