WWE Friday Night Smackdown 24/08/2012 [2012 г., Реслинг, HDTV]

Ответить на тему
 

Спартанец ®

Стаж: 5 лет 6 месяцев

Сообщений: 361

WWE Friday Night Smackdown 24/08/2012

Год выпуска: 2012
Вид спорта: Реслинг
Участники: Зведы WWE
Продолжительность: 01.20.38
Комментарий: Профессиональный (многоголосый, закадровый)
Язык комментариев: Русский
Описание: Еженедельный выпуск Friday Night Smackdown . Выпуск от 24-го августа 2012 года
Качество: HDTV
Формат: Mр4
Видео кодек: х264\AVC
Аудио кодек: AAC
Видео: MPEG4, Video, (H264), 704x400, 29.97fps, 1 400 Kbps
Аудио: MPEG4, Audio, 44100Hz, stereo, 1411kbps, 128 Kbps

Кард

#1 Contender's Match: Randy Orton vs. Alberto Del Rio
Non-Title Match: Sheamus © vs. Dolph Ziggler
WWE Tag Team Title Match: Kofi Kingston & R Truth ©vs. Epico & Primo
Non-Title Match: Layla © vs. Alicia Fox
Ryback vs. Jinder Mahal
WWE United States Champion Antonio Cesaro makes his first appearance as champion

Скриншоты



МедиаИнфо

General
Format : MPEG-4
Format profile : Base Media
Codec ID : isom
File size : 880 MiB
Duration : 1h 20mn
Overall bit rate mode : Variable
Overall bit rate : 1 526 Kbps
Encoded date : UTC 2012-08-24 10:49:17
Tagged date : UTC 2012-08-24 10:49:17
Writing application : Yamb 2.1.0.0 [http://yamb.unite-video.com]
Video
ID : 1
Format : AVC
Format/Info : Advanced Video Codec
Format profile : [email protected]
Format settings, CABAC : Yes
Format settings, ReFrames : 4 frames
Codec ID : avc1
Codec ID/Info : Advanced Video Coding
Duration : 1h 20mn
Bit rate : 1 400 Kbps
Maximum bit rate : 7 294 Kbps
Width : 704 pixels
Height : 400 pixels
Display aspect ratio : 16:9
Frame rate mode : Constant
Frame rate : 29.970 fps
Color space : YUV
Chroma subsampling : 4:2:0
Bit depth : 8 bits
Scan type : Progressive
Bits/(Pixel*Frame) : 0.166
Stream size : 804 MiB (91%)
Writing library : x264 core 120 r2120 0c7dab9
Encoding settings : cabac=1 / ref=3 / deblock=1:0:0 / analyse=0x3:0x113 / me=hex / subme=7 / psy=1 / psy_rd=1.00:0.00 / mixed_ref=1 / me_range=16 / chroma_me=1 / trellis=1 / 8x8dct=1 / cqm=0 / deadzone=21,11 / fast_pskip=1 / chroma_qp_offset=-2 / threads=12 / sliced_threads=0 / nr=0 / decimate=1 / interlaced=0 / bluray_compat=0 / constrained_intra=0 / bframes=3 / b_pyramid=2 / b_adapt=1 / b_bias=0 / direct=1 / weightb=1 / open_gop=0 / weightp=2 / keyint=250 / keyint_min=25 / scenecut=40 / intra_refresh=0 / rc_lookahead=40 / rc=abr / mbtree=1 / bitrate=1400 / ratetol=1.0 / qcomp=0.60 / qpmin=0 / qpmax=51 / qpstep=4 / ip_ratio=1.40 / aq=1:1.00
Tagged date : UTC 2012-08-24 10:50:26
Matrix coefficients : SMPTE 240M
Audio
ID : 2
Format : AAC
Format/Info : Advanced Audio Codec
Format profile : LC
Codec ID : 40
Duration : 1h 20mn
Bit rate mode : Variable
Bit rate : 128 Kbps
Maximum bit rate : 172 Kbps
Channel(s) : 2 channels
Channel positions : Front: L R
Sampling rate : 44.1 KHz
Compression mode : Lossy
Stream size : 73.8 MiB (8%)
Encoded date : UTC 2012-08-24 10:50:24
Tagged date : UTC 2012-08-24 10:50:26

Создавать темы 29-Авг-2012 06:37

[Профиль]  [ЛС] 

McFLY

Стаж: 5 лет 5 месяцев

Сообщений: 658

Симпатии: 22

хм... забираю :)

Создавать темы 29-Авг-2012 10:07

[Профиль]  [ЛС] 

The Game

Стаж: 5 лет 5 месяцев

Сообщений: 80

Симпатии: 1

Ребят куда можно выложить mp3 WWE суперзвёзд

Создавать темы 29-Авг-2012 13:11

[Профиль]  [ЛС] 

McFLY

Стаж: 5 лет 5 месяцев

Сообщений: 658

Симпатии: 22

Ребят куда можно выложить mp3 WWE суперзвёзд
Soundtrack / OST

Создавать темы 29-Авг-2012 13:30

[Профиль]  [ЛС] 
Показать сообщения:    
Ответить на тему

Текущее время: 18-Авг 21:31

Часовой пояс: UTC + 5



Вы не можете начинать темы
Вы не можете отвечать на сообщения
Вы не можете редактировать свои сообщения
Вы не можете удалять свои сообщения
Вы не можете голосовать в опросах
Вы не можете прикреплять файлы к сообщениям
Вы не можете скачивать файлы