Лучшие приколы скрытой камерой. Часть 1 / Best of just for laughs 2012. Part 1 (2008-2012) [2012 г., Юмор, скрытая камера, розыгрыши, приколы.]

Ответить на тему
 

bek1009 ®

Стаж: 5 лет 7 месяцев

Сообщений: 3

Лучшие приколы скрытой камерой Часть 1 -Год выпуска: 2008-2012
Страна: Канада
Жанр: Юмор, скрытая камера, розыгрыши, приколы.
Продолжительность: 01:52:35-Режиссер: Just for laughs
В ролях: "жертвы" розыгрышей-Описание: Лучшая передача жанра. Ничего не понимающие прохожие оказываются в самых нелепых ситуациях, в этом им помогают несколько профессиональных актёров. Происходящее снимается на скрытую камеру.-Качество: WEBRip
Формат: MPEG-4
Видео кодек: AVC
Аудио кодек: AAC
Видео: MPEG4 Video (H264) 640x360 25.00fps
Звук: AAC 44100Hz stereo 1411kbps
-

Media Info

General
Complete name : X:\Video\Best of just for laughs\Best of just for laughs 2012 part 1.mp4
Format : MPEG-4
Format profile : Base Media / Version 2
Codec ID : mp42
File size : 554 MiB
Duration : 1h 52mn
Overall bit rate mode : Variable
Overall bit rate : 688 Kbps
Encoded date : UTC 2012-06-08 14:35:48
Tagged date : UTC 2012-06-08 14:35:48
gsst : 0
gstd : 6755218
gssd : BC30CB008HH1345738030263858
gshh : o-o---preferred---teo-klj1---v13---lscache1.c.youtube.com
Video
ID : 1
Format : AVC
Format/Info : Advanced Video Codec
Format profile : [email protected]
Format settings, CABAC : No
Format settings, ReFrames : 1 frame
Codec ID : avc1
Codec ID/Info : Advanced Video Coding
Duration : 1h 52mn
Bit rate : 589 Kbps
Maximum bit rate : 1 600 Kbps
Width : 640 pixels
Height : 360 pixels
Display aspect ratio : 16:9
Frame rate mode : Constant
Frame rate : 25.000 fps
Color space : YUV
Chroma subsampling : 4:2:0
Bit depth : 8 bits
Scan type : Progressive
Bits/(Pixel*Frame) : 0.102
Stream size : 475 MiB (86%)
Tagged date : UTC 2012-06-08 14:35:51
Audio
ID : 2
Format : AAC
Format/Info : Advanced Audio Codec
Format profile : LC
Codec ID : 40
Duration : 1h 52mn
Bit rate mode : Variable
Bit rate : 96.0 Kbps
Maximum bit rate : 153 Kbps
Channel(s) : 2 channels
Channel positions : Front: L R
Sampling rate : 44.1 KHz
Compression mode : Lossy
Stream size : 77.3 MiB (14%)
Title : IsoMedia File Produced by Google, 5-11-2011
Encoded date : UTC 2012-06-08 14:35:49
Tagged date : UTC 2012-06-08 14:35:51
-

Cкриншоты

-

Создавать темы 30-Авг-2012 18:18

[Профиль]  [ЛС] 

GrayCat

Стаж: 7 лет 4 месяца

Сообщений: 153

Симпатии: 1

Что то долго модерация идёт.
и часть вторая Лучшие приколы скрытой камерой. Часть 2 / Best of just for laughs 2012. Part 2 (2008-2012) WEBRip тоже.

Создавать темы 01-Сен-2012 19:00

[Профиль]  [ЛС] 

GrayCat

Стаж: 7 лет 4 месяца

Сообщений: 153

Симпатии: 1

Эй, модераторы, проверьте раздачи наконец.

Создавать темы 03-Сен-2012 05:42

[Профиль]  [ЛС] 
Показать сообщения:    
Ответить на тему

Текущее время: 20-Сен 08:59

Часовой пояс: UTC + 5



Вы не можете начинать темы
Вы не можете отвечать на сообщения
Вы не можете редактировать свои сообщения
Вы не можете удалять свои сообщения
Вы не можете голосовать в опросах
Вы не можете прикреплять файлы к сообщениям
Вы не можете скачивать файлы