Лучшие приколы скрытой камерой. Часть 2 / Best of just for laughs 2012. Part 2 (2008-2012) WEBRip

Ответить на тему
 

bek1009 ®

Стаж: 5 лет 9 месяцев

Сообщений: 3

Лучшие приколы скрытой камерой Часть 2 -Год выпуска: 2008-2012
Страна: Канада
Жанр: Юмор, скрытая камера, розыгрыши, приколы.
Продолжительность: 01:52:46-Режиссер: Just for laughs
В ролях: "жертвы" розыгрышей-Описание: Лучшая передача жанра. Ничего не понимающие прохожие оказываются в самых нелепых ситуациях, в этом им помогают несколько профессиональных актёров. Происходящее снимается на скрытую камеру.-Качество: WEBRip
Формат: MPEG-4
Видео кодек: AVC
Аудио кодек: AAC
Видео: MPEG4 Video (H264) 640x360 25.00fps
Звук: AAC 44100Hz stereo 1411kbps
-

Media Info

General
Complete name : C:\Documents and Settings\YuldashevB\Мои документы\Downloads\Video\Лучшие приколы скрытой камерой. Часть 2.mp4
Format : MPEG-4
Format profile : Base Media
Codec ID : isom
File size : 561 MiB
Duration : 1h 52mn
Overall bit rate : 696 Kbps
Writing application : Lavf54.22.100
Video
ID : 1
Format : AVC
Format/Info : Advanced Video Codec
Format profile : [email protected].0
Format settings, CABAC : Yes
Format settings, ReFrames : 5 frames
Codec ID : avc1
Codec ID/Info : Advanced Video Coding
Duration : 1h 52mn
Bit rate : 591 Kbps
Width : 640 pixels
Height : 360 pixels
Display aspect ratio : 16:9
Frame rate mode : Constant
Frame rate : 25.000 fps
Color space : YUV
Chroma subsampling : 4:2:0
Bit depth : 8 bits
Scan type : Progressive
Bits/(Pixel*Frame) : 0.103
Stream size : 479 MiB (85%)
Writing library : x264 core 125 r2 d9d2288
Encoding settings : cabac=1 / ref=5 / deblock=1:0:0 / analyse=0x3:0x113 / me=umh / subme=8 / psy=1 / psy_rd=1.00:0.00 / mixed_ref=1 / me_range=16 / chroma_me=1 / trellis=1 / 8x8dct=1 / cqm=0 / deadzone=21,11 / fast_pskip=1 / chroma_qp_offset=-2 / threads=4 / lookahead_threads=1 / sliced_threads=0 / nr=0 / decimate=1 / interlaced=0 / bluray_compat=0 / constrained_intra=0 / bframes=3 / b_pyramid=2 / b_adapt=2 / b_bias=0 / direct=3 / weightb=1 / open_gop=0 / weightp=2 / keyint=25 / keyint_min=2 / scenecut=40 / intra_refresh=0 / rc_lookahead=25 / rc=abr / mbtree=1 / bitrate=591 / ratetol=1.0 / qcomp=0.60 / qpmin=0 / qpmax=69 / qpstep=4 / ip_ratio=1.40 / aq=1:1.00
Audio
ID : 2
Format : AAC
Format/Info : Advanced Audio Codec
Format profile : LC
Codec ID : 40
Duration : 1h 52mn
Duration_LastFrame : -1ms
Bit rate mode : Constant
Bit rate : 96.0 Kbps
Channel(s) : 2 channels
Channel positions : Front: L R
Sampling rate : 44.1 KHz
Compression mode : Lossy
Delay relative to video : -2ms
Stream size : 77.4 MiB (14%)
-

Cкриншоты

-

Создавать темы 30-Авг-2012 18:19

[Профиль]  [ЛС] 

StivenGerrard

Стаж: 6 лет 9 месяцев

Сообщений: 17

дайте скачать

Создавать темы 01-Сен-2012 09:32

[Профиль]  [ЛС] 

chust_etm

Стаж: 4 года 11 месяцев

Сообщений: 5

Первую часть скачал и вторую никак

Создавать темы 06-Ноя-2012 08:14

[Профиль]  [ЛС] 

aziz2725272

Стаж: 5 лет

Сообщений: 158

Симпатии: 6

Скачайте ещё у меня 3 дня в компе будет

Создавать темы 23-Дек-2012 10:03

[Профиль]  [ЛС] 

aziz2725272

Стаж: 5 лет

Сообщений: 158

Симпатии: 6

te Скачайте ещё у меня 3 дня в компе будет

Создавать темы 23-Дек-2012 10:05

[Профиль]  [ЛС] 

DanteSHK

Стаж: 5 лет

Сообщений: 25

Симпатии: 1

встаньте на раздачу кто нибудь. Очень нужно.

Создавать темы 12-Июл-2013 15:38

[Профиль]  [ЛС] 
Показать сообщения:    
Ответить на тему

Текущее время: 23-Окт 01:55

Часовой пояс: UTC + 5



Вы не можете начинать темы
Вы не можете отвечать на сообщения
Вы не можете редактировать свои сообщения
Вы не можете удалять свои сообщения
Вы не можете голосовать в опросах
Вы не можете прикреплять файлы к сообщениям
Вы не можете скачивать файлы