WWE Monday Night Raw 27/08/2012 [2012 г., Реслинг, HDTVRip]

Ответить на тему
 

Спартанец ®

Стаж: 5 лет 6 месяцев

Сообщений: 361

WWE Monday Night Raw 27/08/2012
Год выпуска: 2012
Вид спорта: Реслинг
Участники: Зведы WWE
Продолжительность: 02.17.14
Комментарий: Профессиональный (многоголосый, закадровый)
Язык комментариев: Русский
Описание: Еженедельный выпуск Monday Night Raw. Выпуск от 27-го августа 2012 года
Качество: HDTVRip
Формат: Mр4
Видео кодек: х264\AVC
Аудио кодек: AAC
Видео: MPEG4, Video, (H264), 704x400, 29.97fps, 1 400 Kbps
Аудио: MPEG4, Audio, 44100Hz, stereo, 1411kbps, 128 Kbps

Скриншоты



МедиаИнфо

General
Format : MPEG-4
Format profile : Base Media
Codec ID : isom
File size : 1.47 GiB
Duration : 2h 17mn
Overall bit rate mode : Variable
Overall bit rate : 1 537 Kbps
Encoded date : UTC 2012-08-27 17:49:27
Tagged date : UTC 2012-08-27 17:49:27
Writing application : Yamb 2.1.0.0 [http://yamb.unite-video.com]
Video
ID : 1
Format : AVC
Format/Info : Advanced Video Codec
Format profile : [email protected]
Format settings, CABAC : Yes
Format settings, ReFrames : 2 frames
Codec ID : avc1
Codec ID/Info : Advanced Video Coding
Duration : 2h 17mn
Source duration : 2h 17mn
Bit rate : 1 400 Kbps
Maximum bit rate : 5 551 Kbps
Width : 704 pixels
Height : 400 pixels
Display aspect ratio : 16:9
Frame rate mode : Constant
Frame rate : 29.970 fps
Color space : YUV
Chroma subsampling : 4:2:0
Bit depth : 8 bits
Scan type : Progressive
Bits/(Pixel*Frame) : 0.166
Stream size : 1.28 GiB (87%)
Source stream size : 1.35 GiB
Writing library : x264 core 120 r2120 0c7dab9
Encoding settings : cabac=1 / ref=2 / deblock=0:0:0 / analyse=0x3:0x113 / me=dia / subme=7 / psy=1 / psy_rd=1.00:0.00 / mixed_ref=0 / me_range=16 / chroma_me=0 / trellis=1 / 8x8dct=1 / cqm=0 / deadzone=21,11 / fast_pskip=1 / chroma_qp_offset=-2 / threads=6 / sliced_threads=0 / nr=0 / decimate=0 / interlaced=0 / bluray_compat=0 / constrained_intra=0 / bframes=2 / b_pyramid=0 / b_adapt=0 / b_bias=0 / direct=0 / weightb=0 / open_gop=0 / weightp=0 / keyint=500 / keyint_min=100 / scenecut=40 / intra_refresh=0 / rc=abr / mbtree=0 / bitrate=1400 / ratetol=1.0 / qcomp=0.60 / qpmin=0 / qpmax=69 / qpstep=4 / ip_ratio=1.40 / pb_ratio=1.30 / aq=1:1.00
Tagged date : UTC 2012-08-27 17:51:33
Audio
ID : 2
Format : AAC
Format/Info : Advanced Audio Codec
Format profile : LC
Codec ID : 40
Duration : 2h 17mn
Bit rate mode : Variable
Bit rate : 128 Kbps
Maximum bit rate : 154 Kbps
Channel(s) : 2 channels
Channel positions : Front: L R
Sampling rate : 44.1 KHz
Compression mode : Lossy
Stream size : 126 MiB (8%)
Encoded date : UTC 2012-08-27 17:51:26
Tagged date : UTC 2012-08-27 17:51:33

Создавать темы 30-Авг-2012 22:55

[Профиль]  [ЛС] 

Ala

Стаж: 6 лет 4 месяца

Сообщений: 45

Спартанец, красава! to

Создавать темы 31-Авг-2012 01:16

[Профиль]  [ЛС] 

The Game

Стаж: 5 лет 5 месяцев

Сообщений: 80

Симпатии: 1

Cпс Спартанец, bp

Создавать темы 31-Авг-2012 08:52

[Профиль]  [ЛС] 

McFLY

Стаж: 5 лет 5 месяцев

Сообщений: 658

Симпатии: 22

+1 , в очередной раз всех порадовал :)

Создавать темы 31-Авг-2012 09:40

[Профиль]  [ЛС] 

Спартанец ®

Стаж: 5 лет 6 месяцев

Сообщений: 361

Кому интересно парни, вот топик музыкальных тем рестлеров ))
http://tas-ix.net/viewtopic.php?p=434832#434832

Создавать темы 03-Сен-2012 07:14

[Профиль]  [ЛС] 
Показать сообщения:    
Ответить на тему

Текущее время: 23-Авг 18:52

Часовой пояс: UTC + 5



Вы не можете начинать темы
Вы не можете отвечать на сообщения
Вы не можете редактировать свои сообщения
Вы не можете удалять свои сообщения
Вы не можете голосовать в опросах
Вы не можете прикреплять файлы к сообщениям
Вы не можете скачивать файлы