Уловки Норбита / Norbit (Брайан Роббинс) [2007 г., Комедия, DVDRip]

Ответить на тему
 

Mirhodi ®

Стаж: 5 лет 3 месяца

Сообщений: 23

Симпатии: 2

Уловки Норбита / Norbit
Год выпуска: 2007
Страна: США
Жанр: Комедия
Продолжительность: 01:33:00
Перевод: Профессиональный (полное дублирование)
Режиссер: Брайан Роббинс
В ролях: Эдди Мерфи, Тэнди Ньютон, Терри Крюс, Клифтон Пауэлл, Майти Раста, Куба Гудинг мл., Эдди Гриффин, Кэтт Уильямс, Флойд Левайн, Энтони Расселл
Описание: Жизнь Норбита с самого детства была полна испытаний и разочарований. Брошенный родителями у дверей китайского ресторанчика и воспитанный мистером Вонгом, с начальной школы он был обречен ходить в ухажерах монструозной Распутии.
Не смея возразить своей защитнице, герой смиренно собирается вести ее к алтарю, как в город возвращается любовь всей жизни Норбита, прекрасная Кейт. Теперь ему предстоит как-то избавиться от деспотичной Распутии и завоевать сердце Кейт.

Качество: DVDRip
Формат: AVI
Видео кодек: XviD
Аудио кодек: AC3
Видео: 720x400, 25.00 fps, 1 740 Kbps
Аудио: Stereo, 48000 Hz, 384 Kbps

Media Info

General
Format : AVI
Format/Info : Audio Video Interleave
File size : 1.46 GiB
Duration : 1h 37mn
Overall bit rate : 2 133 Kbps
Director : SENATOR (BDRip 1080)
Writing application : VirtualDubMod 1.5.10.2 (build 2540/release)
Comment : 2.03.2009
Video
Format : MPEG-4 Visual
Format profile : Advanced [email protected]
Format settings, Matrix : Default (MPEG)
Codec ID : XVID
Codec ID/Hint : XviD
Duration : 1h 37mn
Bit rate : 1 740 Kbps
Width : 720 pixels
Height : 400 pixels
Display aspect ratio : 16:9
Frame rate : 25.000 fps
Original frame rate : 23.976 fps
Color space : YUV
Chroma subsampling : 4:2:0
Bit depth : 8 bits
Scan type : Progressive
Compression mode : Lossy
Bits/(Pixel*Frame) : 0.242
Stream size : 1.19 GiB (82%)
Writing library : XviD 1.2.1 (UTC 2008-12-04)
Audio
ID : 1
Format : AC-3
Format/Info : Audio Coding 3
Mode extension : CM (complete main)
Codec ID : 2000
Bit rate : 384 Kbps
Channel(s) : 6 channels
Sampling rate : 48.0 KHz
Bit depth : 16 bits
Stream size : 269 MiB (18%)
Interleave, duration : 40 ms (1.00 video frame)
Interleave, preload duration : 500 ms

Скриншоты







Создавать темы 31-Авг-2012 21:41

[Профиль]  [ЛС] 

naruto_shippuden

Стаж: 5 лет 2 месяца

Сообщений: 113

Симпатии: 3

ого супер фильм спс

Создавать темы 31-Авг-2012 21:43

[Профиль]  [ЛС] 

Mirhodi ®

Стаж: 5 лет 3 месяца

Сообщений: 23

Симпатии: 2

Доп. инфо: В этом фильме Эди Мерфи играет сразу два роли или больше. Но жену и себя он с играл одновременно

Создавать темы 31-Авг-2012 21:46

[Профиль]  [ЛС] 

macs_2727

Стаж: 6 лет 1 месяц

Сообщений: 25

Симпатии: 1

когда раздача ??

Создавать темы 31-Авг-2012 21:55

[Профиль]  [ЛС] 

st.wanderer

Стаж: 5 лет 6 месяцев

Сообщений: 29

Симпатии: 1

комедия, которая злит своим тупизмом...

Создавать темы 11-Сен-2012 02:21

[Профиль]  [ЛС] 

Roma3777

Стаж: 5 лет 5 месяцев

Сообщений: 8

дайте раздачу

Создавать темы 16-Янв-2013 15:44

[Профиль]  [ЛС] 

maxim76

Стаж: 5 лет 5 месяцев

Сообщений: 35

Симпатии: 1

спс!

Создавать темы 05-Авг-2013 08:15

[Профиль]  [ЛС] 

Asliddin2222

Стаж: 3 года 10 месяцев

Сообщений: 1

дайте раздачу! a когда раздача ??

Создавать темы 15-Окт-2014 13:16

[Профиль]  [ЛС] 

b3ha

Стаж: 4 года 3 месяца

Сообщений: 19

Симпатии: 3

Плииииз дайте раздачу очень хочу посмотреть

Создавать темы 12-Май-2016 14:10

[Профиль]  [ЛС] 
Показать сообщения:    
Ответить на тему

Текущее время: 22-Авг 08:38

Часовой пояс: UTC + 5



Вы не можете начинать темы
Вы не можете отвечать на сообщения
Вы не можете редактировать свои сообщения
Вы не можете удалять свои сообщения
Вы не можете голосовать в опросах
Вы не можете прикреплять файлы к сообщениям
Вы не можете скачивать файлы