Видео школа Игры на клавишных инструментах [2012 г.]

Ответить на тему
 

arturtairov ®

Стаж: 5 лет 3 месяца

Сообщений: 79

Симпатии: 5

Видео школа Игры на клавишных инструментах
Производитель: Василий Кашеваров и Разумоф Алексей
Год выпуска: 2012
Язык: русский
Описание: Василий Кашеваров и Разумоф Алексей записали видео курс Игры на клавишных инструментах являясь аранжировщиками они создали свою интерпретацию обучения удалив от туда всю воду и не нужные или мало полезные моменты и снабдив их в свою очередь самым необходимым и полезным материалом базируясь на личном опыте и достижениях в этой профессии. По скольку аранжировщику как профессионалу необходимо уметь играть на клавишных.
Видео кодек: Другой MPEG4
Видео: Format : MPEG-4 Visual Format profile : Advanced [email protected] Format settings, BVOP : 2 Format settings, QPel : No Format settings, GMC : No warppoints Format settings, Matrix : Default (H.263) Codec ID : XVID Codec ID/Hint : XviD Duration : 4mn 54s Bit rate : 508 Kbps Width : 480 pixels Height : 360 pixels Display aspect ratio : 4:3 Frame rate : 25.000 fps Color space : YUV Chroma subsampling : 4:2:0 Bit depth : 8 bits Scan type : Progressive Compression mode : Lossy Bits/(Pixel*Frame) : 0.118 Stream size : 17.8 MiB (78%) Writing library : XviD 1.2.1 (UTC 2008-12-04)
Аудио: Format : MPEG Audio Format version : Version 1 Format profile : Layer 3 Mode : Joint stereo Mode extension : MS Stereo Codec ID : 55 Codec ID/Hint : MP3 Duration : 4mn 54s Bit rate mode : Constant Bit rate : 128 Kbps Channel(s) : 2 channels Sampling rate : 44.1 KHz Compression mode : Lossy Delay relative to video : 40ms Stream size : 4.49 MiB (20%) Alignment : Aligned on interleaves Interleave, duration : 26 ms (0.65 video frame) Interleave, preload duration : 522 ms Writing library : LAME3.98

Скриншоты









Последний раз редактировалось: arturtairov (2012-10-08 10:50), всего редактировалось 1 раз

Создавать темы 31-Авг-2012 22:14

[Профиль]  [ЛС] 
Показать сообщения:    
Ответить на тему

Текущее время: 15-Дек 11:27

Часовой пояс: UTC + 5



Вы не можете начинать темы
Вы не можете отвечать на сообщения
Вы не можете редактировать свои сообщения
Вы не можете удалять свои сообщения
Вы не можете голосовать в опросах
Вы не можете прикреплять файлы к сообщениям
Вы не можете скачивать файлы