Феи: Потерянное сокровище / Tinker Bell and the Lost Treasure (Клэй Холл) [2009 г., Мультфильм, Приключения, Семейный, Фэнтези, DVDRip]

Ответить на тему
 

antanyletun ®

Стаж: 5 лет 6 месяцев

Сообщений: 74

Симпатии: 3

Феи: Потерянное сокровище / Tinker Bell and the LostTreasure
Год выпуска: 2009
Страна:
Жанр: Мультфильм, Приключения, Семейный, Фэнтези
Продолжительность: 01:20:14
Перевод: Профессиональный (полное дублирование)
Режиссер: Клэй Холл
Грей ДеЛайл, Джейн Хоррокс, Джесси МакКартни, Джон Ди Маджио, Кристин Ченоуэт, Люси Лью, Мэй Уитман, Памела Адлон, Рэйвен, Анжелика Хьюстон
Продолжение приключений феи мастерицы Динь-Динь и ее друзей. Необходимо омолодить Дерево Фейской Пыльцы. Выбирают фею Динь — лучшего из мастеров, она должна изготовить Скипетр, важнейшая часть которого — Лунный Камень. В ходе работы над Скипетром Лунный Камень был разрушен. Динь-Динь очень хочет исправить ошибку. Она отправляется на север Нетляндии в поисках Волшебного Зеркала, которое может исполнить ее желание.Доп. информация: Слоган: «Adventure beyond Pixie Hollow.»Media Info:
D:\торрент\мультфильмы\POTERYANNOE SOKROVISHHE.avi
General
Complete name : D:\торрент\мультфильмы\POTERYANNOE SOKROVISHHE.avi
Format : AVI
Format/Info : Audio Video Interleave
File size : 1.46 GiB
Duration : 1h 20mn
Overall bit rate : 2 597 Kbps
Movie name : Феи: Потерянное сокровище / Tinker Bell and the Lost Treasure (2009)
Director : КОля (BDRip 1080p)
Writing application : VirtualDubModRus 1.5.10.2 (build 2542/release)
Writing library : VirtualDubMod build 2542/release
Copyright : HQ-ViDEO (www.hq-video.ru)
Comment : 21.11.2009
Video #0
ID : 0
Format : MPEG-4 Visual
Format profile : Advanced [email protected]
Format settings, BVOP : 1
Format settings, QPel : No
Format settings, GMC : No warppoints
Format settings, Matrix : Default (MPEG)
Codec ID : XVID
Codec ID/Hint : XviD
Duration : 1h 20mn
Bit rate : 1 815 Kbps
Width : 720 pixels
Height : 400 pixels
Display aspect ratio : 16:9
Frame rate : 23.976 fps
Color space : YUV
Chroma subsampling : 4:2:0
Bit depth : 8 bits
Scan type : Progressive
Compression mode : Lossy
Bits/(Pixel*Frame) : 0.263
Stream size : 1.02 GiB (70%)
Writing library : XviD 1.2.1 (UTC 2008-12-04)
Audio #1
ID : 1
Format : AC-3
Format/Info : Audio Coding 3
Mode extension : CM (complete main)
Format settings, Endianness : Big
Codec ID : 2000
Duration : 1h 20mn
Bit rate mode : Constant
Bit rate : 384 Kbps
Channel(s) : 6 channels
Channel positions : Front: L C R, Side: L R, LFE
Sampling rate : 48.0 KHz
Bit depth : 16 bits
Compression mode : Lossy
Stream size : 220 MiB (15%)
Alignment : Split accross interleaves
Interleave, duration : 42 ms (1.00 video frame)
Interleave, preload duration : 500 ms
Audio #2
ID : 2
Format : AC-3
Format/Info : Audio Coding 3
Mode extension : CM (complete main)
Format settings, Endianness : Big
Codec ID : 2000
Duration : 1h 20mn
Bit rate mode : Constant
Bit rate : 384 Kbps
Channel(s) : 6 channels
Channel positions : Front: L C R, Side: L R, LFE
Sampling rate : 48.0 KHz
Bit depth : 16 bits
Compression mode : Lossy
Stream size : 220 MiB (15%)
Alignment : Split accross interleaves
Interleave, duration : 42 ms (1.00 video frame)
Interleave, preload duration : 500 ms
Качество: DVDRip
Формат: AVI
Видео кодек: XviD
Аудио кодек: AC3
Видео: mpeg4,720x400, 1 815 Kbps, 23.976 fps
Аудио: Аудио #1: ac3, 48 KHz, 6 channels, 384 Kbit/s (rus)
Аудио: Аудио #2: ac3, 48 KHz, 6 channels, 384 Kbit/s (eng)

Скриншоты






Последний раз редактировалось: antanyletun (2012-09-01 13:43), всего редактировалось 2 раз(а)

Создавать темы 01-Сен-2012 02:10

[Профиль]  [ЛС] 

antanyletun ®

Стаж: 5 лет 6 месяцев

Сообщений: 74

Симпатии: 3

Желаю всем детям хорошего просмотра , очередная серия из знаменитого мультфильма про фею....
кого интересует первая часть напишите могу выложить, в ней рассказывается откуда появилась фея Динь Динь и как она росла... ad ay

Создавать темы 01-Сен-2012 02:17

[Профиль]  [ЛС] 

U.balu80

Стаж: 5 лет 5 месяцев

Сообщений: 18

.
Желаю всем детям хорошего просмотра , очередная серия из знаменитого мультфильма про фею....
кого интересует первая часть напишите могу выложить, в ней рассказывается откуда появилась фея Динь Динь и как она росла... ad ay
Друг у тебя есть Феи: Большое волшебное спасение? Залей если сможешь. Здесь есть этот мультик только источника нету.

Создавать темы 03-Сен-2012 18:08

[Профиль]  [ЛС] 

antanyletun ®

Стаж: 5 лет 6 месяцев

Сообщений: 74

Симпатии: 3

.
Желаю всем детям хорошего просмотра , очередная серия из знаменитого мультфильма про фею....
кого интересует первая часть напишите могу выложить, в ней рассказывается откуда появилась фея Динь Динь и как она росла... ad ay
Друг у тебя есть Феи: Большое волшебное спасение? Залей если сможешь. Здесь есть этот мультик только источника нету.
Хорошо завтра постараюсь залить этот мультфильм сюда, ближе к вечеру, если получится, то пораньше....

Создавать темы 03-Сен-2012 21:46

[Профиль]  [ЛС] 

toyir

Стаж: 5 лет 2 месяца

Сообщений: 70

эсли скашиваю 2 раза нажму спасиба br bu bu

Создавать темы 07-Сен-2012 20:02

[Профиль]  [ЛС] 

toyir

Стаж: 5 лет 2 месяца

Сообщений: 70

ета мой лубимий bp bo :of:

Создавать темы 07-Сен-2012 20:03

[Профиль]  [ЛС] 

toyir

Стаж: 5 лет 2 месяца

Сообщений: 70

дайте скорст плиз плиз плиз плиз ca :cd:

Создавать темы 07-Сен-2012 20:04

[Профиль]  [ЛС] 

ABU

Стаж: 6 лет 5 месяцев

Сообщений: 11

Симпатии: 2

Скорость добавьте Пожалуйста. Народ помогите скачать. Спасибо Заранее !

Создавать темы 11-Окт-2012 23:23

[Профиль]  [ЛС] 

azam

Стаж: 7 лет 5 месяцев

Сообщений: 97

Симпатии: 7

Ребята, встанте на раздачу плз, совсем не качает...

Создавать темы 13-Дек-2012 14:13

[Профиль]  [ЛС] 

Abzy

Стаж: 5 лет

Сообщений: 29

Всем спасибо. Народ кто не качал многое теряете, первая часть просто "ФЕИ", следом остальные выкачивайте ;)

Создавать темы 29-Дек-2012 13:44

[Профиль]  [ЛС] 

bankeer

Стаж: 4 года 7 месяцев

Сообщений: 2

otsuda kak mojno skachat ?

Создавать темы 04-Окт-2013 21:51

[Профиль]  [ЛС] 
Показать сообщения:    
Ответить на тему

Текущее время: 18-Ноя 02:20

Часовой пояс: UTC + 5



Вы не можете начинать темы
Вы не можете отвечать на сообщения
Вы не можете редактировать свои сообщения
Вы не можете удалять свои сообщения
Вы не можете голосовать в опросах
Вы не можете прикреплять файлы к сообщениям
Вы не можете скачивать файлы