[#094] Непрощённый / Unforgiven (Клинт Иствуд) [1992 г., вестерн, драма] BDRip-AVC

Ответить на тему
 

barcamol ®

Стаж: 5 лет 9 месяцев

Сообщений: 29

Симпатии: 15

Непрощённый / Unforgiven
«Никого не жалко, никого…»
-Год выпуска: 1992
Страна: США
Жанр: вестерн, драма
Продолжительность: 02:10:41
Перевод: Профессиональный (многоголосый, закадровый)
Субтитры: русские, english
Главы: есть-Режиссер: Клинт Иствуд
Сценарий: Дэвид Уэбб Пиплз
Продюсер: Клинт Иствуд, Джулиан Людвиг, Дэвид Валдес
Оператор: Джек Н. Грин
Композитор: Ленни Нихаус
Художник: Генри Бамстид, Адриан Гортон, Рик Робертс, Дженис Блэки-Гудайн
Монтаж: Джоэл Кокс-В ролях: Морган Фриман, Клинт Иствуд, Ричард Харрис, Джин Хэкмен, Джеймс Вулветт, Сол Рубинек, Фрэнсис Фишер, Анна Левайн-Томпсон, Дэвид Муччи, Роб Кэмпбелл-Описание: Бывший преступник и жестокий убийца Уильям Мунни завязывает со своим криминальным прошлым. Он становится обычным фермером, любящим мужем и отличным отцом двоих детей. Но вскоре умирает его жена. Один он не может заработать достаточно денег, чтобы воспитывать детей, поэтому "скрипя сердце" он принимает предложения Скорфилда Кида выследить и поймать двух ковбоев, которые встали на преступный путь. Но жизнь вносит коррективы в его смелые планы...-Доп. информация: сборы в США: $101 157 447
сборы в мире: + $58 000 000 = $159 157 447
премьера (мир): 3 августа 1992
релиз на DVD: 7 июля 2009, «Юниверсал Пикчерс Рус»
-Качество: BDRip-AVC
Формат: Matroska
Видео кодек: Advanced Video Codec
Аудио кодек: Audio Coding 3
Видео: AVC, [email protected], 2090 Kbps, 1280x544 pixels, 23.976 fps, Bits/(Pixel*Frame): 0.125
Аудио #1: AC3, 448 Kbps, 6 channels, Front: L C R, Side: L R, LFE, 48.0 KHz | русский (многоголосый, "Позитив-Мультимедиа")
Аудио #2: AC3, 448 Kbps, 6 channels, Front: L C R, Side: L R, LFE, 48.0 KHz | english (original)-

Награды и номинации

Оскар, 1993 год
Победитель (4):
Лучший фильм
Лучшая мужская роль второго плана (Джин Хэкмен)
Лучший режиссер (Клинт Иствуд)
Лучший монтаж
Номинации (5):
Лучшая мужская роль (Клинт Иствуд)
Лучший сценарий
Лучшая работа оператора
Лучшие декорации
Лучший звук
Золотой глобус, 1993 год
Победитель (2):
Лучшая мужская роль второго плана (Джин Хэкмен)
Лучший режиссер (Клинт Иствуд)
Номинации (2):
Лучший фильм (драма)
Лучший сценарий
Британская академия, 1993 год
Победитель (1):
Лучшая мужская роль второго плана (Джин Хэкмен)
Номинации (5):
Лучший фильм
Лучший режиссер (Клинт Иствуд)
Лучший оригинальный сценарий
Лучшая работа оператора
Лучший звук
-

Знаете ли вы, что...

Фильм посвящен режиссерам Серджио Леоне и Дону Сигелу, под началом которых Иствуд работал в картинах, принесших ему широкую известность и оказавших значительное влияние на все его дальнейшее творчество.
Съемочный период фильма — всего 39 дней, причем закончились съемки даже на 4 дня раньше намеченного.
В первоначальной версии сценария предполагалось, что вступительный и заключительный эпизоды фильма будет сопровождать закадровый голос. Однако, Клинт Иствуд принял решение убрать его, и заменить на обычный текст.
На постройку декораций городка Биг Виски, у создателей фильма ушло всего 32 дня.
Приобретя сценарий фильма, Клинт Иствуд ждал около десяти лет до достижения нужного возраста, чтобы сыграть роль Уильяма Манни.
-

Mediainfo

General
Unique ID : 252297218228155047280212314859814779098 (0xBDCEAD3F4C9E310D92FF1D04078BF8DA)
Format : Matroska
Format version : Version 2
File size : 2.78 GiB
Duration : 2h 10mn
Overall bit rate : 3 046 Kbps
Movie name : Unforgiven_Непрощённый (1992)
Encoded date : UTC 2012-09-02 05:36:00
Writing application : mkvmerge v5.7.0 ('The Whirlwind') built on Aug 5 2012 17:52:57
Writing library : libebml v1.2.3 + libmatroska v1.3.0
Video
ID : 1
Format : AVC
Format/Info : Advanced Video Codec
Format profile : [email protected]
Format settings, CABAC : Yes
Format settings, ReFrames : 6 frames
Muxing mode : Header stripping
Codec ID : V_MPEG4/ISO/AVC
Duration : 2h 10mn
Bit rate : 2 090 Kbps
Width : 1 280 pixels
Height : 544 pixels
Display aspect ratio : 2.35:1
Frame rate mode : Constant
Frame rate : 23.976 fps
Color space : YUV
Chroma subsampling : 4:2:0
Bit depth : 8 bits
Scan type : Progressive
Bits/(Pixel*Frame) : 0.125
Stream size : 1.91 GiB (69%)
Title : Unforgiven_Непрощённый (1992)
Writing library : x264 core 68 r1183M f21daff
Encoding settings : cabac=1 / ref=6 / deblock=1:-3:-3 / analyse=0x3:0x113 / me=umh / subme=7 / psy_rd=1.0:0.0 / mixed_ref=1 / me_range=32 / chroma_me=1 / trellis=2 / 8x8dct=1 / cqm=2 / deadzone=21,11 / chroma_qp_offset=-2 / threads=6 / nr=0 / decimate=0 / mbaff=0 / bframes=3 / b_pyramid=1 / b_adapt=2 / b_bias=0 / direct=3 / wpredb=1 / keyint=250 / keyint_min=25 / scenecut=40 / rc=crf / crf=21.7 / qcomp=0.60 / qpmin=10 / qpmax=51 / qpstep=4 / ip_ratio=1.40 / pb_ratio=1.30 / aq=1:1.00
Language : English
Default : Yes
Forced : No
Audio #1
ID : 2
Format : AC-3
Format/Info : Audio Coding 3
Mode extension : CM (complete main)
Format settings, Endianness : Big
Muxing mode : Header stripping
Codec ID : A_AC3
Duration : 2h 10mn
Bit rate mode : Constant
Bit rate : 448 Kbps
Channel(s) : 6 channels
Channel positions : Front: L C R, Side: L R, LFE
Sampling rate : 48.0 KHz
Bit depth : 16 bits
Compression mode : Lossy
Stream size : 419 MiB (15%)
Title : MVO Позитив-Мультимедиа
Language : Russian
Default : Yes
Forced : No
Audio #2
ID : 3
Format : AC-3
Format/Info : Audio Coding 3
Mode extension : CM (complete main)
Format settings, Endianness : Big
Muxing mode : Header stripping
Codec ID : A_AC3
Duration : 2h 10mn
Bit rate mode : Constant
Bit rate : 448 Kbps
Channel(s) : 6 channels
Channel positions : Front: L C R, Side: L R, LFE
Sampling rate : 48.0 KHz
Bit depth : 16 bits
Compression mode : Lossy
Stream size : 419 MiB (15%)
Title : Original
Language : English
Default : No
Forced : No
Text #1
ID : 4
Format : UTF-8
Codec ID : S_TEXT/UTF8
Codec ID/Info : UTF-8 Plain Text
Title : Позитив-Мультимедиа
Language : Russian
Default : No
Forced : No
Text #2
ID : 5
Format : UTF-8
Codec ID : S_TEXT/UTF8
Codec ID/Info : UTF-8 Plain Text
Language : English
Default : No
Forced : No
Menu
00:00:00.000 : en:Foreword
00:01:11.863 : en:Disturbance in Big Whiskey
00:03:54.359 : en:Little Bill's "No Fuss" Fine
00:07:01.379 : en:Finances ("We Ain't Horses")
00:08:17.622 : en:The Schofield Kid's Proposal
00:14:10.808 : en:Payment Day
00:16:54.805 : en:Out of Practice
00:24:18.582 : en:"We Done Stuff for Money Before, Ned."
00:28:52.689 : en:Just a Fella Now
00:31:42.358 : en:The Majesty of Royalty
00:34:34.864 : en:No Firearms Allowed; Unafraid But No Carpenter
00:38:54.123 : en:Welcoming English Bob
00:46:24.907 : en:A Not-So-Straight Shooter
00:53:44.346 : en:The Duke of Death's True Exploits
00:58:05.273 : en:Killer's Campfire
01:00:24.912 : en:An Object Lesson in Killing
01:06:49.130 : en:Farewell to Savages
01:09:36.297 : en:Hang the Carpenter; Vision of the Dead
01:13:48.882 : en:The Hospitality of Big Whiskey
01:20:59.813 : en:The Angel of Death
01:24:46.873 : en:"We Both Got Scars"
01:29:38.998 : en:Water for a Dying Man
01:34:27.453 : en:Ned's Decision
01:36:10.890 : en:"He Had It Coming!"
01:41:11.190 : en:Little Bill Interrogates Ned
01:43:13.812 : en:Assassins Strike
01:45:50.469 : en:"It's A Helluva Thing, Killin' a Man"
01:49:19.344 : en:Will's Only Friend
01:53:14.746 : en:On Display
01:54:34.325 : en:"I'm Here to Kill You, Little Bill"
01:58:21.719 : en:Always Been Lucky; "Deserves Got Nothin' to Do with It"
02:02:13.117 : en:A Killer's Threat
02:04:32.256 : en:Epilogue and End Credits
-

Скриншоты





-


Последний раз редактировалось: barcamol (2013-05-11 18:31), всего редактировалось 3 раз(а)

Создавать темы 02-Сен-2012 21:56

[Профиль]  [ЛС] 

baburkhan

Стаж: 5 лет 11 месяцев

Сообщений: 22

barcamol, СПАСИБО ДРУГ! ДАВНО ИСКАЛ (ждал в тасикс)...

Создавать темы 03-Сен-2012 21:14

[Профиль]  [ЛС] 

alexey.555

Стаж: 5 лет 6 месяцев

Сообщений: 137

Симпатии: 22

Согласен с постом выше! Я тоже давно искал этот фильм, а тут раз выложили. Спасибо!

Создавать темы 03-Сен-2012 21:58

[Профиль]  [ЛС] 

nasri91

Стаж: 4 года 9 месяцев

Сообщений: 48

Симпатии: 1

хозяины че медлите дайте скорость пожалуйста

Создавать темы 06-Фев-2013 21:26

[Профиль]  [ЛС] 

root

Стаж: 5 лет 4 месяца

Сообщений: 592

Симпатии: 172

Это в этом фильме играет одноименная песня группы Металлика?

Создавать темы 07-Фев-2013 17:23

[Профиль]  [ЛС] 

Butcher9

Стаж: 4 года 7 месяцев

Сообщений: 38

Симпатии: 2

давно искал благодарю !!!!

Создавать темы 18-Окт-2014 23:37

[Профиль]  [ЛС] 

bayoz

Стаж: 4 года 11 месяцев

Сообщений: 10

Спасибо всем!

Создавать темы 28-Фев-2015 08:16

[Профиль]  [ЛС] 
Показать сообщения:    
Ответить на тему

Текущее время: 18-Окт 05:10

Часовой пояс: UTC + 5



Вы не можете начинать темы
Вы не можете отвечать на сообщения
Вы не можете редактировать свои сообщения
Вы не можете удалять свои сообщения
Вы не можете голосовать в опросах
Вы не можете прикреплять файлы к сообщениям
Вы не можете скачивать файлы